Бладшот / Bloodshot (Дэйв Уилсон) [2020, Фантастика, боевик, драма, BDRip 1080p] DUB (iTunes) :: UZTOR.PW Лучший трекер в зоне TAS-IX!
 
Уважаемые гости сайта! Добро Пожаловать на наш торрент трекер,где Вы можете бесплатно скачать любой Софт,Фильмы,Музыку и многое другое! А так же постоянно ведется набор модераторов и релизеров. Зарегистрируйтесь сейчас, чтобы получить доступ ко всем функциям. После регистрации или входа на сайт вы сможете создавать темы, отвечать на сообщения и скачивать файлы.

Навигация по Торрент раздачам и Форум и Стол заказов и Группы



 Бладшот / Bloodshot (Дэйв Уилсон) [2020, Фантастика, боевик, драма, BDRip 1080p] DUB (iTunes)

Главная  Кинофильмы  Зарубежные кинофильмы  HD
Статистика раздачи
Нет
 
     
 
 
Автор Сообщение
  • Andrey ®
  • Не в сети
  • Автор темы

  • 6662
  • VIP пользователь

  • Пол: Мужской

  • Стаж: 1 месяц 7 дней

  • Сообщений: 10

  •  Россия

  • Провайдер: Beeline Beeline

  • Карма: 0


  • Наличие запрета:

  • Награды: Нет
  • Создавать темы 24-Апр-2020 23:15

    Бладшот / Bloodshot-Год выпуска: 2020
    Страна: США, Китай
    Жанр: Фантастика, боевик, драма
    Продолжительность: 01:49:20
    Перевод: Дублированный | iTunes
    Субтитры: Русские (Forced, full), украинские (Full), английские-В ролях: Вин Дизель, Сэм Хьюэн, Эйса Гонсалес, Гай Пирс, Талула Райли, Тоби Кеббелл, Ламорн Моррис, Йоуханнес Хёйкьюр Йоуханнессон, Сиддхартх Дхананджай, Тайрел Мейер, Алекс Эн-лос
    Режиссёр: Дэйв Уилсон-Описание: Корпорация RST возвращает к жизни недавно убитого солдата Рэя Гаррисона. Армия нанороботов в его крови превратила Рэя в бессмертного Бладшота, наделенного сверхчеловеческой силой и способностью мгновенно самоисцеляться. Контролируя тело Рэя, компания влияет на его разум и воспоминания. Но герой пойдет на все, чтобы выяснить правду.-[kp]https://www.kinopoisk.ru/film/512673/[/kp] [imdb]http://www.imdb.com/title/tt1634106/[/imdb]-Качество: BDRip 1080p
    Формат: MKV
    Видео кодек: AVC
    Аудио кодек: AC3
    Видео: MPEG-4 AVC, 1920x804, 14.5 Mbit/s, 23.976 fps
    Аудио #01: 48 kHz, AC3, 5.1, 384 Kbps | iTunes | RUS |
    Аудио #02: 48 kHz, DTS, 5.1, 1510 Kbps | Оригинал | ENG |-

    MediaInfo

    General
    Unique ID : 121072554089291630485788296593217479715 (0x5B15B9C9DC5BD39E0DB68C7A5994E423)
    Complete name : E:Video111Bloodshot.2020.BDRip.1080p.seleZen.mkv
    Format : Matroska
    Format version : Version 4
    File size : 12.5 GiB
    Duration : 1 h 49 min
    Overall bit rate : 16.4 Mb/s
    Movie name : Bloodshot 2020 from селезень
    Encoded date : UTC 2020-04-24 17:31:16
    Writing application : mkvmerge v40.0.0 ('Old Town Road + Pony') 64-bit
    Writing library : libebml v1.3.9 + libmatroska v1.5.2
    Video
    ID : 1
    Format : AVC
    Format/Info : Advanced Video Codec
    Format profile : High@L4.1
    Format settings : CABAC / 5 Ref Frames
    Format settings, CABAC : Yes
    Format settings, Reference : 5 frames
    Codec ID : V_MPEG4/ISO/AVC
    Duration : 1 h 49 min
    Bit rate : 14.5 Mb/s
    Width : 1 920 pixels
    Height : 804 pixels
    Display aspect ratio : 2.40:1
    Frame rate mode : Constant
    Frame rate : 23.976 (24000/1001) FPS
    Color space : YUV
    Chroma subsampling : 4:2:0
    Bit depth : 8 bits
    Scan type : Progressive
    Bits/(Pixel*Frame) : 0.392
    Stream size : 11.1 GiB (88%)
    Writing library : x264 core 160 r3000 33f9e14
    Encoding settings : cabac=1 / ref=5 / deblock=1:-3:-3 / analyse=0x3:0x133 / me=umh / subme=10 / psy=1 / psy_rd=1.00:0.00 / mixed_ref=1 / me_range=32 / chroma_me=1 / trellis=2 / 8x8dct=1 / cqm=0 / deadzone=21,11 / fast_pskip=0 / chroma_qp_offset=-2 / threads=12 / lookahead_threads=2 / sliced_threads=0 / nr=0 / decimate=0 / interlaced=0 / bluray_compat=0 / constrained_intra=0 / bframes=8 / b_pyramid=2 / b_adapt=2 / b_bias=0 / direct=3 / weightb=1 / open_gop=0 / weightp=2 / keyint=250 / keyint_min=23 / scenecut=40 / intra_refresh=0 / rc=crf / mbtree=0 / crf=16.7 / qcomp=0.60 / qpmin=0 / qpmax=69 / qpstep=4 / ip_ratio=1.40 / pb_ratio=1.30 / aq=3:0.80
    Language : English
    Default : Yes
    Forced : No
    Audio #1
    ID : 2
    Format : AC-3
    Format/Info : Audio Coding 3
    Commercial name : Dolby Digital
    Codec ID : A_AC3
    Duration : 1 h 49 min
    Bit rate mode : Constant
    Bit rate : 384 kb/s
    Channel(s) : 6 channels
    Channel layout : L R C LFE Ls Rs
    Sampling rate : 48.0 kHz
    Frame rate : 31.250 FPS (1536 SPF)
    Compression mode : Lossy
    Stream size : 300 MiB (2%)
    Title : iTunes
    Language : Russian
    Service kind : Complete Main
    Default : Yes
    Forced : Yes
    Audio #2
    ID : 3
    Format : DTS
    Format/Info : Digital Theater Systems
    Codec ID : A_DTS
    Duration : 1 h 49 min
    Bit rate mode : Constant
    Bit rate : 1 509 kb/s
    Channel(s) : 6 channels
    Channel layout : C L R Ls Rs LFE
    Sampling rate : 48.0 kHz
    Frame rate : 93.750 FPS (512 SPF)
    Bit depth : 16 bits
    Compression mode : Lossy
    Stream size : 1.15 GiB (9%)
    Title : Original
    Language : English
    Default : No
    Forced : No
    Text #1
    ID : 4
    Format : UTF-8
    Codec ID : S_TEXT/UTF8
    Codec ID/Info : UTF-8 Plain Text
    Duration : 1 h 47 min
    Bit rate : 0 b/s
    Count of elements : 10
    Stream size : 400 Bytes (0%)
    Title : Forced
    Language : Russian
    Default : Yes
    Forced : Yes
    Text #2
    ID : 5
    Format : UTF-8
    Codec ID : S_TEXT/UTF8
    Codec ID/Info : UTF-8 Plain Text
    Duration : 1 h 48 min
    Bit rate : 72 b/s
    Count of elements : 1072
    Stream size : 57.8 KiB (0%)
    Title : Full
    Language : Russian
    Default : No
    Forced : No
    Text #3
    ID : 6
    Format : UTF-8
    Codec ID : S_TEXT/UTF8
    Codec ID/Info : UTF-8 Plain Text
    Duration : 1 h 48 min
    Bit rate : 66 b/s
    Count of elements : 1071
    Stream size : 52.6 KiB (0%)
    Title : Full
    Language : Ukrainian
    Default : No
    Forced : No
    Text #4
    ID : 7
    Format : UTF-8
    Codec ID : S_TEXT/UTF8
    Codec ID/Info : UTF-8 Plain Text
    Duration : 1 h 41 min
    Bit rate : 46 b/s
    Count of elements : 1150
    Stream size : 34.9 KiB (0%)
    Title : Full
    Language : English
    Default : No
    Forced : No
    Text #5
    ID : 8
    Format : UTF-8
    Codec ID : S_TEXT/UTF8
    Codec ID/Info : UTF-8 Plain Text
    Duration : 1 h 47 min
    Bit rate : 51 b/s
    Count of elements : 1493
    Stream size : 40.6 KiB (0%)
    Title : SDH
    Language : English
    Default : No
    Forced : No
    Menu
    00:00:00.000 : en:Chapter 01
    00:07:06.384 : en:Chapter 02
    00:13:56.210 : en:Chapter 03
    00:20:36.861 : en:Chapter 04
    00:25:05.546 : en:Chapter 05
    00:32:11.179 : en:Chapter 06
    00:41:41.499 : en:Chapter 07
    00:46:39.380 : en:Chapter 08
    00:53:35.629 : en:Chapter 09
    01:02:28.495 : en:Chapter 10
    01:08:59.344 : en:Chapter 11
    01:12:42.525 : en:Chapter 12
    01:19:15.918 : en:Chapter 13
    01:26:49.996 : en:Chapter 14
    01:31:07.379 : en:Chapter 15
    01:38:31.531 : en:Chapter 16
    01:44:11.245 : en:Chapter 17

    Скриншоты



    Последний раз редактировалось: Andrey (2020-04-25 14:17), всего редактировалось 1 раз

      -746

    • Сообщений: 249

    • Откуда: Космический Станция

    • Откуда: Космический Станция

    • Провайдер: Не указан Не указан

    • Карма: 32700


    • Наличие запрета:

    • Награды: Нет
  • Создавать темы 26-Апр-2020 01:42 (спустя 1 день 2 часа)

    Топик был перенесен из форума Новинки в форум HD


    -InVoKeR-
    Показать сообщения:    
    Главная  Кинофильмы  Зарубежные кинофильмы  HD

    Текущее время: 31-Май 13:14

    Часовой пояс: UTC + 5



    Вы не можете начинать темы
    Вы не можете отвечать на сообщения
    Вы не можете редактировать свои сообщения
    Вы не можете удалять свои сообщения
    Вы не можете голосовать в опросах
    Вы не можете прикреплять файлы к сообщениям
    Вы не можете скачивать файлы