5 сантиметров в секунду / Byousoku 5 Centimeter / 5 Centimeters per Second [Movie] [Без хардсаба] [RUS(int), JAP+SUB] [2007, романтика, драма, HDRip] :: UZTOR.PW Лучший трекер в зоне TAS-IX!
Регистрация ·
Имя: Пароль:  
· Забыли пароль?
Уважаемые гости сайта! Добро Пожаловать на наш торрент трекер,где Вы можете бесплатно скачать любой Софт,Фильмы,Музыку и многое другое! А так же постоянно ведется набор модераторов и релизеров. Зарегистрируйтесь сейчас, чтобы получить доступ ко всем функциям. После регистрации или входа на сайт вы сможете создавать темы, отвечать на сообщения и скачивать файлы.

Навигация по Торрент раздачам и Форум

До нового обновления Торрент-Трекер осталось

 5 сантиметров в секунду / Byousoku 5 Centimeter / 5 Centimeters per Second [Movie] [Без хардсаба] [RUS(int), JAP+SUB] [2007, романтика, драма, HDRip]

Главная  Аниме  Манга и OVA  Артбуки и Полнометражки
Статистика раздачи
Нет
 
     
 
 
Автор Сообщение
  • .STRICER ®
  • Не в сети
  • 5055
  • Пол: Мужской

  • Стаж: 1 год

  • Сообщений: 139

  • Откуда: Узбекистан

  • Провайдер: UzOnline UzOnline

  • Тарифный план: UNLIM 6 / 6 Мбит/сек

  • Карма: 777


  • Наличие запрета:

  • Награды: 4 (Подробнее)
    Активный Модератор (Количество: 1) Меломан (Количество: 1) Модератор (Количество: 1) Примерный модератор (Количество: 1)
  • Создавать темы 21-Янв-2019 15:40

    5 сантиметров в секунду / Byousoku 5 Centimeter / 5 Centimeters per Second Страна: Япония
    Год выпуска: 2007 г.
    Жанр: романтика, драма
    Тип: Movie
    Продолжительность: 01:02:45
    Режиссер: Синкай Макото
    Студия: Comix Wave films
    Перевод: Профессиональный (Русский)
    Описание: Окончание начальной школы становится для Такаки и его подруги Акари громадным разочарованием: из-за переезда родителей приходится распрощаться с планами на поступление в одну и ту же среднюю школу. Десятки километров — гигантское расстояние для ребенка и совсем небольшое — для взрослого… но умение преодолевать расстояния не всегда помогает преодолеть растущую пропасть между людьми.
    Качество: HDRip
    Тип релиза: Без хардсаба
    Формат видео: mp4
    Видео: AVC 1 304 kb/s 1280x720 23.976FPS
    Аудио: AACLC 362 kb/s 48kHz [RU]

    MediaInfo

    General
    Complete name               : D:\Byousoku-5-Centimeter-BDrip-1280x720-x264-AAC.mp4
    Format                      : MPEG-4
    Format profile              : Base Media
    Codec ID                    : isom (isom)
    File size                   : 705 MiB
    Duration                    : 1 h 2 min
    Overall bit rate mode       : Variable
    Overall bit rate            : 1 570 kb/s
    Encoded date                : UTC 2017-03-21 04:33:42
    Tagged date                 : UTC 2017-03-21 04:33:42
    Writing application         : Yamb 2.1.0.0 [http://yamb.unite-video.com]
    Video
    ID                          : 1
    Format                      : AVC
    Format/Info                 : Advanced Video Codec
    Format profile              : High@L4.1
    Format settings             : CABAC / 4 Ref Frames
    Format settings, CABAC      : Yes
    Format settings, ReFrames   : 4 frames
    Codec ID                    : avc1
    Codec ID/Info               : Advanced Video Coding
    Duration                    : 1 h 2 min
    Bit rate                    : 1 304 kb/s
    Maximum bit rate            : 8 862 kb/s
    Width                       : 1 280 pixels
    Height                      : 720 pixels
    Display aspect ratio        : 16:9
    Frame rate mode             : Constant
    Frame rate                  : 23.976 (24000/1001) FPS
    Color space                 : YUV
    Chroma subsampling          : 4:2:0
    Bit depth                   : 8 bits
    Scan type                   : Progressive
    Bits/(Pixel*Frame)          : 0.059
    Stream size                 : 586 MiB (83%)
    Writing library             : x264 core 133 r2334 a3ac64b
    Encoding settings           : cabac=1 / ref=2 / deblock=1:0:0 / analyse=0x3:0x113 / me=hex / subme=6 / psy=1 / psy_rd=1.00:0.00 / mixed_ref=1 / me_range=16 / chroma_me=1 / trellis=1 / 8x8dct=1 / cqm=0 / deadzone=21,11 / fast_pskip=1 / chroma_qp_offset=-2 / threads=6 / lookahead_threads=1 / sliced_threads=0 / nr=0 / decimate=1 / interlaced=0 / bluray_compat=0 / constrained_intra=0 / bframes=3 / b_pyramid=2 / b_adapt=1 / b_bias=0 / direct=1 / weightb=1 / open_gop=0 / weightp=1 / keyint=250 / keyint_min=23 / scenecut=40 / intra_refresh=0 / rc_lookahead=30 / rc=crf / mbtree=1 / crf=20.0 / qcomp=0.60 / qpmin=0 / qpmax=69 / qpstep=4 / ip_ratio=1.40 / aq=1:1.00
    Language                    : Japanese
    Encoded date                : UTC 2017-03-21 14:27:42
    Tagged date                 : UTC 2017-03-21 04:34:01
    Codec configuration box     : avcC
    Audio
    ID                          : 2
    Format                      : AAC LC
    Format/Info                 : Advanced Audio Codec Low Complexity
    Codec ID                    : mp4a-40-2
    Duration                    : 1 h 2 min
    Bit rate mode               : Variable
    Bit rate                    : 265 kb/s
    Maximum bit rate            : 362 kb/s
    Channel(s)                  : 2 channels
    Channel layout              : L R
    Sampling rate               : 48.0 kHz
    Frame rate                  : 46.875 FPS (1024 SPF)
    Compression mode            : Lossy
    Stream size                 : 117 MiB (17%)
    Language                    : Russian
    Encoded date                : UTC 2017-03-21 04:33:53
    Tagged date                 : UTC 2017-03-21 04:34:01

    _________________

    -
    Скачать Teredo
    Показать сообщения:    
    Главная  Аниме  Манга и OVA  Артбуки и Полнометражки

    Текущее время: 20-Ноя 06:30

    Часовой пояс: UTC + 5



    Вы не можете начинать темы
    Вы не можете отвечать на сообщения
    Вы не можете редактировать свои сообщения
    Вы не можете удалять свои сообщения
    Вы не можете голосовать в опросах
    Вы не можете прикреплять файлы к сообщениям
    Вы не можете скачивать файлы