Последний самурай / The Last Samurai (Эдвард Цвик / Edward Zwick) [2003, Боевик, драма, приключения, военный, BDRip 1080p] :: UZTOR.PW Лучший трекер в зоне TAS-IX!
 
Уважаемые гости сайта! Добро Пожаловать на наш торрент трекер,где Вы можете бесплатно скачать любой Софт,Фильмы,Музыку и многое другое! А так же постоянно ведется набор модераторов и релизеров. Зарегистрируйтесь сейчас, чтобы получить доступ ко всем функциям. После регистрации или входа на сайт вы сможете создавать темы, отвечать на сообщения и скачивать файлы.

Навигация по Торрент раздачам и Форум и Стол заказов и Группы



 Последний самурай / The Last Samurai (Эдвард Цвик / Edward Zwick) [2003, Боевик, драма, приключения, военный, BDRip 1080p]

Главная  Кинофильмы  Зарубежные кинофильмы  HD
Статистика раздачи
Нет
 
     
 
 
 
Автор Сообщение
  • Создавать темы 22-Апр-2020 23:36

    Последний самурай / The Last Samurai-- Год выхода: 2003
    Страна: США, Япония, Новая Зеландия
    Студия: Warner Bros. Pictures, Radar Pictures Inc., The Bedford Falls Company
    Жанр: Боевик, драма, приключения, военный
    Продолжительность: 02:34:11-Перевод:
      Профессиональный (полное дублирование)
      + Вставки из проф. двухголосого (на Японскую речь)
      + любительского одноголосого (2 фразы)
    -Режиссер: Эдвард Цвик / Edward Zwick-В ролях: Кен Ватанабе, Том Круз, Коюки, Уильям Этертон, Тони Голдуин, Билли Коннолли, Чад Линдберг, Тимоти Сполл, Шичиносуке Накамура, Хироюки Санада, Масато Харада, Шин Коямада, Рэй Годшалл ст., Масаши Одате, Джон Кояма, Того Игава, Сатоши Никайдо, Шинтаро Вада, Сюн Сугата, Соскэ Икэмацу, Аои Минато, Сэйдзо Фукумото, Седзи Йошихара, Косабуро Номура IV, Такаси Ногути, Ногучи Такаюки, Свен Тоорвальд, Скотт Уилсон, Юки Матсузаки, Мицуюки Оиши, Джиро Вада-О фильме: Действие разворачивается в Японии 70-ых годов девятнадцатого века. Капитан Нейтон Альгрен, уважаемый американский военный офицер, нанят Императором Японии для обучения первой армии Страны Восходящего Солнца современному искусству ведения боевых действий. Император пытается искоренить древних воинов-самураев, готовясь к более прозападной политике правительства…- -Качество: BDRip 1080p
    Формат: MKV
    Видео: AVC, 1920x792, 6003 Кбит/с, 23,976 кадр/сек
    Аудио: AC-3, 6 ch, 640 Кбит/сек--

    MediaInfo

    General
    Unique ID : 210713291537346522440630344156225672043 (0x9E85E75E77CEFFBC9F8D3D1A4633136B)
    Complete name : D:DownloadsВременные файлыПоследний самурай.(The Last Samurai).2003.x264.BDRip.1080p.mkv
    Format : Matroska
    Format version : Version 4 / Version 2
    File size : 7.14 GiB
    Duration : 2 h 34 min
    Overall bit rate : 6 631 kb/s
    Encoded date : UTC 2017-08-09 21:23:36
    Writing application : mkvmerge v14.0.0 ('Flow') 64bit
    Writing library : libebml v1.3.4 + libmatroska v1.4.5
    Video
    ID : 1
    Format : AVC
    Format/Info : Advanced Video Codec
    Format profile : High@L4.1
    Format settings, CABAC : Yes
    Format settings, RefFrames : 5 frames
    Codec ID : V_MPEG4/ISO/AVC
    Duration : 2 h 34 min
    Bit rate : 6 003 kb/s
    Width : 1 920 pixels
    Height : 792 pixels
    Display aspect ratio : 2.40:1
    Frame rate mode : Constant
    Frame rate : 23.976 (24000/1001) FPS
    Color space : YUV
    Chroma subsampling : 4:2:0
    Bit depth : 8 bits
    Scan type : Progressive
    Bits/(Pixel*Frame) : 0.165
    Stream size : 6.45 GiB (90%)
    Writing library : x264 core 146 r2538 121396c
    Encoding settings : cabac=1 / ref=5 / deblock=1:0:0 / analyse=0x3:0x113 / me=umh / subme=11 / psy=1 / psy_rd=1.05:0.15 / mixed_ref=1 / me_range=32 / chroma_me=1 / trellis=2 / 8x8dct=1 / cqm=0 / deadzone=21,11 / fast_pskip=0 / chroma_qp_offset=-3 / threads=6 / lookahead_threads=1 / sliced_threads=0 / nr=0 / decimate=1 / interlaced=0 / bluray_compat=0 / constrained_intra=0 / bframes=4 / b_pyramid=2 / b_adapt=2 / b_bias=0 / direct=3 / weightb=1 / open_gop=0 / weightp=2 / keyint=240 / keyint_min=23 / scenecut=40 / intra_refresh=0 / rc_lookahead=50 / rc=2pass / mbtree=1 / bitrate=6003 / ratetol=1.0 / qcomp=0.60 / qpmin=0 / qpmax=69 / qpstep=4 / cplxblur=20.0 / qblur=0.5 / vbv_maxrate=14000 / vbv_bufsize=14000 / nal_hrd=none / filler=0 / ip_ratio=1.40 / aq=1:1.00
    Default : Yes
    Forced : No
    Audio
    ID : 2
    Format : AC-3
    Format/Info : Audio Coding 3
    Format settings, Endianness : Big
    Codec ID : A_AC3
    Duration : 2 h 34 min
    Bit rate mode : Constant
    Bit rate : 640 kb/s
    Channel(s) : 6 channels
    Channel positions : Front: L C R, Side: L R, LFE
    Sampling rate : 48.0 kHz
    Frame rate : 31.250 FPS (1536 SPF)
    Bit depth : 16 bits
    Compression mode : Lossy
    Stream size : 706 MiB (10%)
    Title : DUB + DVO (Дублированный + Проф. двухголосый). 640 Kbps, 6ch, AC3
    Language : Russian
    Service kind : Complete Main
    Default : Yes
    Forced : No
    -

    _________________
    Показать сообщения:    
    Главная  Кинофильмы  Зарубежные кинофильмы  HD

    Текущее время: 29-Окт 16:28

    Часовой пояс: UTC + 5



    Вы не можете начинать темы
    Вы не можете отвечать на сообщения
    Вы не можете редактировать свои сообщения
    Вы не можете удалять свои сообщения
    Вы не можете голосовать в опросах
    Вы не можете прикреплять файлы к сообщениям
    Вы не можете скачивать файлы