Карьер / The Quarry (Скотт Тимс) [2020, Триллер, криминал, детектив, WEB-DL 1080p] MVO (Mallorn Studio) :: UZTOR.PW Лучший трекер в зоне TAS-IX!
 
Уважаемые гости сайта! Добро Пожаловать на наш торрент трекер,где Вы можете бесплатно скачать любой Софт,Фильмы,Музыку и многое другое! А так же постоянно ведется набор модераторов и релизеров. Зарегистрируйтесь сейчас, чтобы получить доступ ко всем функциям. После регистрации или входа на сайт вы сможете создавать темы, отвечать на сообщения и скачивать файлы.

Навигация по Торрент раздачам и Форум и Стол заказов и Группы



 Карьер / The Quarry (Скотт Тимс) [2020, Триллер, криминал, детектив, WEB-DL 1080p] MVO (Mallorn Studio)

Главная  Кинофильмы  Зарубежные кинофильмы  HD
Статистика раздачи
Нет
 
     
 
 
Автор Сообщение
  • -InVoKeR- ®
  • Не в сети
  • Автор темы

  • 5057
  • VIP пользователь

  • Пол: Мужской

  • Стаж: 1 год 6 месяцев

  • Сообщений: 557

  •  Узбекистан

  • Откуда: из Криптона

  • Провайдер: UzOnline UzOnline

  • Тарифный план: Unlim 4 (Мир: 4 Мбит/с, Tas-ix: 100Мбит/с)

  • Steam: 76561198442747843

  • Telegram: i_Invoker

  • Карма: 1120


  • Наличие запрета:

  • Награды: 22 (Подробнее)
    Admin (Количество: 1) Авторитет (Количество: 1) Активный релизер 1 (Количество: 1) Активный релизер 2 (Количество: 1) Активный сидер 1 (Количество: 1)
  • Создавать темы 22-Апр-2020 22:42

    Карьер / The Quarry--Год выпуска: 2020
    Страна: США
    Студия: EFC Films, Metalwork Pictures, Prowess Pictures
    Жанр: Триллер, криминал, детектив
    Продолжительность: 01:43:01
    Перевод: Любительский многоголосый (Mallorn Studio)
    Субтитры: Русские, английские-Режиссер: Скотт Тимс-В ролях: Ши Уигхэм, Майкл Шеннон, Каталина Сандино Морено, Бобби Сото, Бруно Бичир, Альваро Мартинес, Джимми Гонсалес, Абель Бесерра, Энтони Рейнольдс, Роуз Бьянко-О фильме: Таинственный мужчина с темным прошлым находит убежище в глубинке Техаса. Он представляется новым пастором и быстро сплачивает вокруг себя прихожан, проникшихся его необычными проповедями. Одновременно его личностью заинтересовывается и начальник местной полиции, имеющий основания для подозрений.- -Качество: WEB-DL 1080p
    Формат: MKV
    Видео: MPEG-4 AVC, 9297 Кбит/с, 1920x800
    Аудио: Русский (AC3, 6 ch, 640 Кбит/с) | Mallorn Studio
    Аудио: Английский (E-AC3, 6 ch, 640 Кбит/с) | Original--

    MediaInfo

    General
    Unique ID : 333492744252818656098832114196779509114 (0xFAE45DC1DACCBC516D34DA5767E2257A)
    Complete name : D:\Films\1080p\The.Quarry.2020.AVC.WEB-DL.1080p_Mallorn.mkv
    Format : Matroska
    Format version : Version 4
    File size : 7.62 GiB
    Duration : 1 h 43 min
    Overall bit rate : 10.6 Mb/s
    Encoded date : UTC 2020-04-22 00:28:25
    Writing application : mkvmerge v44.0.0 ('Domino') 64-bit
    Writing library : libebml v1.3.10 + libmatroska v1.5.2
    Video
    ID : 1
    Format : AVC
    Format/Info : Advanced Video Codec
    Format profile : High@L4
    Format settings : CABAC / 4 Ref Frames
    Format settings, CABAC : Yes
    Format settings, Reference : 4 frames
    Codec ID : V_MPEG4/ISO/AVC
    Duration : 1 h 43 min
    Bit rate mode : Constant
    Bit rate : 9 297 kb/s
    Nominal bit rate : 10 000 kb/s
    Width : 1 920 pixels
    Height : 800 pixels
    Display aspect ratio : 2.40:1
    Frame rate mode : Constant
    Frame rate : 23.976 (24000/1001) FPS
    Color space : YUV
    Chroma subsampling : 4:2:0
    Bit depth : 8 bits
    Scan type : Progressive
    Bits/(Pixel*Frame) : 0.252
    Stream size : 6.69 GiB (88%)
    Language : English
    Default : Yes
    Forced : No
    Color range : Limited
    Color primaries : BT.709
    Transfer characteristics : BT.709
    Matrix coefficients : BT.709
    Audio #1
    ID : 2
    Format : AC-3
    Format/Info : Audio Coding 3
    Commercial name : Dolby Digital
    Codec ID : A_AC3
    Duration : 1 h 43 min
    Bit rate mode : Constant
    Bit rate : 640 kb/s
    Channel(s) : 6 channels
    Channel layout : L R C LFE Ls Rs
    Sampling rate : 48.0 kHz
    Frame rate : 31.250 FPS (1536 SPF)
    Compression mode : Lossy
    Stream size : 472 MiB (6%)
    Title : Mallorn
    Language : Russian
    Service kind : Complete Main
    Default : Yes
    Forced : No
    Audio #2
    ID : 3
    Format : E-AC-3
    Format/Info : Enhanced AC-3
    Commercial name : Dolby Digital Plus
    Codec ID : A_EAC3
    Duration : 1 h 43 min
    Bit rate mode : Constant
    Bit rate : 640 kb/s
    Channel(s) : 6 channels
    Channel layout : L R C LFE Ls Rs
    Sampling rate : 48.0 kHz
    Frame rate : 31.250 FPS (1536 SPF)
    Compression mode : Lossy
    Stream size : 472 MiB (6%)
    Language : English
    Service kind : Complete Main
    Default : No
    Forced : No
    Text #1
    ID : 4
    Format : UTF-8
    Codec ID : S_TEXT/UTF8
    Codec ID/Info : UTF-8 Plain Text
    Duration : 1 h 34 min
    Bit rate : 48 b/s
    Count of elements : 763
    Stream size : 33.4 KiB (0%)
    Title : Mallorn
    Language : Russian
    Default : No
    Forced : No
    Text #2
    ID : 5
    Format : UTF-8
    Codec ID : S_TEXT/UTF8
    Codec ID/Info : UTF-8 Plain Text
    Duration : 1 h 38 min
    Bit rate : 27 b/s
    Count of elements : 733
    Stream size : 20.0 KiB (0%)
    Language : English
    Default : No
    Forced : No
    Text #3
    ID : 6
    Format : UTF-8
    Codec ID : S_TEXT/UTF8
    Codec ID/Info : UTF-8 Plain Text
    Duration : 1 h 40 min
    Bit rate : 31 b/s
    Count of elements : 917
    Stream size : 23.2 KiB (0%)
    Title : SDH
    Language : English
    Default : No
    Forced : No
    -

    _________________
    Показать сообщения:    
    Главная  Кинофильмы  Зарубежные кинофильмы  HD

    Текущее время: 25-Май 22:20

    Часовой пояс: UTC + 5



    Вы не можете начинать темы
    Вы не можете отвечать на сообщения
    Вы не можете редактировать свои сообщения
    Вы не можете удалять свои сообщения
    Вы не можете голосовать в опросах
    Вы не можете прикреплять файлы к сообщениям
    Вы не можете скачивать файлы