Легенды «Смертельной битвы»: Месть Скорпиона / Mortal Kombat Legends: Scorpions Revenge [2020, Мультфильм, Blu-ray HEVC 1080i] MVO (NewComers) :: UZTOR.PW Лучший трекер в зоне TAS-IX!
 
Уважаемые гости сайта! Добро Пожаловать на наш торрент трекер,где Вы можете бесплатно скачать любой Софт,Фильмы,Музыку и многое другое! А так же постоянно ведется набор модераторов и релизеров. Зарегистрируйтесь сейчас, чтобы получить доступ ко всем функциям. После регистрации или входа на сайт вы сможете создавать темы, отвечать на сообщения и скачивать файлы.

Навигация по Торрент раздачам и Форум и Стол заказов и Группы



 Легенды «Смертельной битвы»: Месть Скорпиона / Mortal Kombat Legends: Scorpions Revenge [2020, Мультфильм, Blu-ray HEVC 1080i] MVO (NewComers)

Главная  Мультфильмы  Зарубежные мультфильмы  Новинки
Статистика раздачи
Нет
 
     
 
 
Автор Сообщение
  • logan7272 ®
  • Не в сети
  • Автор темы

  • 5260
  • Пол: Мужской

  • Стаж: 1 год 2 месяца

  • Сообщений: 8

  •  Узбекистан

  • Откуда: NAMANGAN

  • Провайдер: UzOnline UzOnline

  • Тарифный план: UNLIm-4

  • Карма: 10


  • Наличие запрета:

  • Награды: Нет
  • Создавать темы 19-Апр-2020 18:27

    Легенды «Смертельной битвы»: Месть Скорпиона / Mortal Kombat Legends: Scorpions Revenge
    - -Год выпуска: 2020
    Страна: США
    Жанр: мультфильм,
    Продолжительность: 01:20:06
    Перевод: Профессиональный многоголосый (NewComers)
    *** Присутствует ненормативная лексика (18+)-Режиссер: Этан Сполдинг / Ethan Spaulding-В ролях: Дженнифер Карпентер, Грей ДеЛайл, Джоэл МакХэйл, Кевин Майкл Ричардсон, Стивен Блум, Дэрин Де Пол, Робин Аткин Даунс, Фред Таташиор, Джордан Родригез, Патрик Сэйтц
    -
    Описание: Сюжет мультфильма расскажет об очередном смертельном турнире Шан Цзуна, в котором участвуют бойцы с Земли и других миров. В центре истории окажется жаждущий мести за смерть семьи и клана Скорпион, который соглашается принять участие в межпространственном состязании.
    Мировая премьера: 12 апреля 2020
    Лицам до 17 лет обязательно присутствие взрослого-Качество: Blu-ray
    Контейнер: MKV
    Видео: HEVC, 1920x1080 (16:9), 3491 kbps, 23,976 fps
    Аудио #1: | Русский AAC LC 96 kbps
    Аудио #2: | Английский Opus 192 kbps
    Субтитры #1: английские; (Full)
    Субтитры #2: английские; (SDH)

    Media Info

    General
    Unique ID : 164645966200020431045490541528697161427 (0x7BDDA8DF0025FD8CC5BCA9276D8646D3)
    Complete name : C:\Users\logan\Downloads\Programs\Mortal Kombat Legends Scorpion's Revenge (2020) [Web 1080p x265]\Mortal Kombat Legends- Scorpion's Revenge (2020) [Amazon 1080p x265].mkv
    Format : Matroska
    Format version : Version 4 / Version 2
    File size : 2.12 GiB
    Duration : 1 h 20 min
    Overall bit rate : 3 784 kb/s
    Movie name : [Hakata Ramen] Mortal Kombat Legends: Scorpion's Revenge (2020) [Amazon 1080p x265] ~GodZilla
    Encoded date : UTC 2020-04-19 03:56:42
    Writing application : mkvmerge v45.0.0 ('Heaven in Pennies') 32-bit
    Writing library : libebml v1.3.10 + libmatroska v1.5.2
    Video
    ID : 1
    Format : HEVC
    Format/Info : High Efficiency Video Coding
    Format profile : Main@L4@Main
    Codec ID : V_MPEGH/ISO/HEVC
    Duration : 1 h 20 min
    Bit rate : 3 492 kb/s
    Width : 1 920 pixels
    Height : 1 080 pixels
    Display aspect ratio : 16:9
    Frame rate mode : Constant
    Frame rate : 23.976 (24000/1001) FPS
    Color space : YUV
    Chroma subsampling : 4:2:0
    Bit depth : 8 bits
    Bits/(Pixel*Frame) : 0.070
    Stream size : 1.95 GiB (92%)
    Title : [Hakata Ramen] HEVC/.x265 (GodZilla)
    Language : English
    Default : Yes
    Forced : No
    Color range : Limited
    Color primaries : BT.709
    Transfer characteristics : BT.709
    Matrix coefficients : BT.709
    Audio #1
    ID : 2
    Format : AAC
    Format/Info : Advanced Audio Codec
    Format profile : LC
    Codec ID : A_AAC
    Duration : 1 h 20 min
    Bit rate : 96.0 kb/s
    Channel(s) : 2 channels
    Channel positions : Front: L R
    Sampling rate : 48.0 kHz
    Frame rate : 46.875 FPS (1024 spf)
    Compression mode : Lossy
    Stream size : 55.0 MiB (3%)
    Title : 2 Channels
    Language : Russian
    Default : Yes
    Forced : No
    Audio #2
    ID : 3
    Format : Opus
    Codec ID : A_OPUS
    Duration : 1 h 20 min
    Bit rate : 192 kb/s
    Channel(s) : 6 channels
    Channel positions : Front: L C R, Rear: L R, LFE
    Sampling rate : 48.0 kHz
    Frame rate : 50.000 FPS (960 spf)
    Compression mode : Lossy
    Stream size : 111 MiB (5%)
    Title : 5.1 Channels
    Language : English
    Default : No
    Forced : No
    Text #1
    ID : 4
    Format : UTF-8
    Codec ID : S_TEXT/UTF8
    Codec ID/Info : UTF-8 Plain Text
    Duration : 1 h 17 min
    Bit rate : 38 b/s
    Count of elements : 868
    Stream size : 21.6 KiB (0%)
    Title : Full
    Language : English
    Default : No
    Forced : No
    Text #2
    ID : 5
    Format : UTF-8
    Codec ID : S_TEXT/UTF8
    Codec ID/Info : UTF-8 Plain Text
    Duration : 1 h 17 min
    Bit rate : 44 b/s
    Count of elements : 1060
    Stream size : 25.3 KiB (0%)
    Title : SDH
    Language : English
    Default : No
    Forced : No
    СКРИНШОТ
    Показать сообщения:    
    Главная  Мультфильмы  Зарубежные мультфильмы  Новинки

    Текущее время: 31-Май 11:28

    Часовой пояс: UTC + 5



    Вы не можете начинать темы
    Вы не можете отвечать на сообщения
    Вы не можете редактировать свои сообщения
    Вы не можете удалять свои сообщения
    Вы не можете голосовать в опросах
    Вы не можете прикреплять файлы к сообщениям
    Вы не можете скачивать файлы