Эльфийская песнь / Elfen Lied [TV-1] [13+1 из 13+1] [Без хардсаба] [RUS А.Гаврилов] [2004, драма, фантастика, ужасы, HDTVRip] :: UZTOR.PW Трекер для всех
Регистрация ·
Имя: Пароль:  
· Забыли пароль?

Навигация по Торрент раздачам и Форум

 Эльфийская песнь / Elfen Lied [TV-1] [13+1 из 13+1] [Без хардсаба] [RUS А.Гаврилов] [2004, драма, фантастика, ужасы, HDTVRip]

Главная  Аниме  Сериалы  Аниме Сериалы
Статистика раздачи
Нет
 
     
 
 
Автор Сообщение
  • .STRICER ®
  • Не в сети
  • 5055
  • Пол: Мужской

  • Стаж: 9 месяцев 1 день

  • Сообщений: 127

  • Откуда: Узбекистан

  • Провайдер: UzOnline UzOnline

  • Тарифный план: UNLIM 6 / 6 Мбит/сек

  • Карма: 371


  • Создавать темы 21-Янв-2019 15:07

    Эльфийская песнь / Elfen Lied Страна: Япония
    Год выпуска: 2004 г.
    Жанр: драма, фантастика, ужасы
    Тип: TV
    Продолжительность: 25
    Режиссер: Мамору Канбэ
    Студия: ARMS
    Описание: Люси, генетически модифицированное существо — так называемый Диклониус, устраивает настоящую кровавую баню в изоляторе особого содержания и вырывается из-под опеки правительственного агентства, изучающего Диклониусов. Потерявшая память Люси выглядит как обычная девочка-подросток — и только рожки на голове выдают ее зловещую природу…
    Качество: HDTVRip
    Формат видео: mp4
    Совместимость с бытовыми плеерами: Нет
    Видео: AVC 1800 kb/s 1280x720 25FPS
    Аудио: AACLC 128 kb/s 44.1 kHz

    MediaInfo

    General
    Complete name               : D:\Эльфийская Песнь  Elfen Lied TV-1 [13 Из 13 + OVA]\Elfen_Lied_01.720.mp4
    Format                      : MPEG-4
    Format profile              : Base Media
    Codec ID                    : isom (isom/iso2/avc1/mp41)
    File size                   : 357 MiB
    Duration                    : 25 min 2 s
    Overall bit rate mode       : Variable
    Overall bit rate            : 1 993 kb/s
    Encoded date                : UTC 1970-01-01 00:00:00
    Tagged date                 : UTC 1970-01-01 00:00:00
    Writing application         : Lavf52.40.0
    Video
    ID                          : 1
    Format                      : AVC
    Format/Info                 : Advanced Video Codec
    Format profile              : High@L3.1
    Format settings             : CABAC / 3 Ref Frames
    Format settings, CABAC      : Yes
    Format settings, ReFrames   : 3 frames
    Codec ID                    : avc1
    Codec ID/Info               : Advanced Video Coding
    Duration                    : 25 min 1 s
    Bit rate                    : 1 800 kb/s
    Width                       : 1 280 pixels
    Height                      : 720 pixels
    Display aspect ratio        : 16:9
    Frame rate mode             : Variable
    Frame rate                  : 24.939 FPS
    Minimum frame rate          : 12.500 FPS
    Maximum frame rate          : 25.000 FPS
    Original frame rate         : 25.000 FPS
    Color space                 : YUV
    Chroma subsampling          : 4:2:0
    Bit depth                   : 8 bits
    Scan type                   : Progressive
    Bits/(Pixel*Frame)          : 0.078
    Stream size                 : 333 MiB (93%)
    Writing library             : x264 core 79
    Encoding settings           : cabac=1 / ref=3 / deblock=1:0:0 / analyse=0x3:0x113 / me=hex / subme=7 / psy=1 / psy_rd=1.0:0.0 / mixed_ref=1 / me_range=16 / chroma_me=1 / trellis=1 / 8x8dct=1 / cqm=0 / deadzone=21,11 / chroma_qp_offset=-2 / threads=24 / nr=0 / decimate=1 / mbaff=0 / constrained_intra=0 / bframes=3 / b_pyramid=0 / b_adapt=1 / b_bias=0 / direct=1 / wpredb=32 / wpredp=2 / keyint=250 / keyint_min=25 / scenecut=40 / rc_lookahead=40 / rc=abr / mbtree=1 / bitrate=1800 / ratetol=2.2 / qcomp=0.60 / qpmin=10 / qpmax=51 / qpstep=4 / ip_ratio=1.41 / aq=1:1.00
    Language                    : Japanese
    Encoded date                : UTC 1970-01-01 00:00:00
    Tagged date                 : UTC 1970-01-01 00:00:00
    Codec configuration box     : avcC
    Audio
    ID                          : 2
    Format                      : AAC LC
    Format/Info                 : Advanced Audio Codec Low Complexity
    Codec ID                    : mp4a-40-2
    Duration                    : 25 min 2 s
    Bit rate mode               : Variable
    Bit rate                    : 128 kb/s
    Channel(s)                  : 2 channels
    Channel layout              : L R
    Sampling rate               : 44.1 kHz
    Frame rate                  : 43.066 FPS (1024 SPF)
    Compression mode            : Lossy
    Stream size                 : 22.9 MiB (6%)
    Language                    : Russian
    Encoded date                : UTC 1970-01-01 00:00:00
    Tagged date                 : UTC 1970-01-01 00:00:00

    _________________

    -
    Скачать Teredo
    Показать сообщения:    
    Главная  Аниме  Сериалы  Аниме Сериалы

    Текущее время: 18-Авг 21:25

    Часовой пояс: UTC + 5



    Вы не можете начинать темы
    Вы не можете отвечать на сообщения
    Вы не можете редактировать свои сообщения
    Вы не можете удалять свои сообщения
    Вы не можете голосовать в опросах
    Вы не можете прикреплять файлы к сообщениям
    Вы не можете скачивать файлы