Президент школьного совета - моя невеста / Okusama ga Seitokaichou [Фурукава Хироюки] (TV-1-2) [12-12 / 12-12](2015,комедия, школа, этти, романтика, сёнен BDRip) [720p] :: UZTOR.PW Лучший трекер в зоне TAS-IX!
 
Уважаемые гости сайта! Добро Пожаловать на наш торрент трекер,где Вы можете бесплатно скачать любой Софт,Фильмы,Музыку и многое другое! А так же постоянно ведется набор модераторов и релизеров. Зарегистрируйтесь сейчас, чтобы получить доступ ко всем функциям. После регистрации или входа на сайт вы сможете создавать темы, отвечать на сообщения и скачивать файлы.

Навигация по Торрент раздачам и Форум и Стол заказов и Группы



  Президент школьного совета - моя невеста / Okusama ga Seitokaichou [Фурукава Хироюки] (TV-1-2) [12-12 / 12-12](2015,комедия, школа, этти, романтика, сёнен BDRip) [720p]

Главная  Аниме  Сериалы  Аниме Сериалы (HD)
Статистика раздачи
Нет
 
     
 
 
Автор Сообщение
  • Abercrombie ®
  • Не в сети
  • Автор темы

  • 5397
  • Пол: Мужской

  • Стаж: 11 месяцев 26 дней

  • Сообщений: 20

  •  Япония

  • Откуда: Ташкент

  • Провайдер: FiberNet FiberNet

  • Telegram: Persik_life

  • Карма: 102


  • Наличие запрета:

  • Награды: Нет
  • Создавать темы 07-Апр-2020 19:36

    My Wife Is the Student Council President / Okusama ga Seitokaichou!
    おくさまが生徒会長!

    --Производство: Япония
    Жанр: комедия, школа, этти, романтика
    Целевая аудитория: сёнэн
    Тип: ТВ (12 эп.), 8 мин.
    Выпуск: c 02.07.2015 по 17.09.2015
    Режиссёр: Фурукава Хироюки
    Снято по манге: Моя невеста - президент учсовета!
    Автор оригинала: Наката Юми
    Студия: Seven
    Возрастное ограничение: R+ (Лицам моложе 17 лет просмотр запрещается)
    Озвучивание: Ancord
    Перевод: FooBoo
    Тайминг и работа со звуком: Gradis, Sheeze-- --Описание: Жил был, не тужил Изуми Хаято. Поступил в старшую школу, участвовал в выборах на должность президента школьного совета,
    но проиграл. Девушке, которая с трибуны на дебатах сказала, что поможет и поддержит все романтические отношения в школе если выберут ее,
    да притом еще и осыпала все первые ряды презервативами со словами "Но не забывайте предохраняться". И все бы ничего, но этим вечером отец сообщает Хаято, что давным давно со своим другом они договорились, что дочка того выйдет замуж за Хаято.--Качество: BD 720p
    Формат: mp4
    Видео: MPEG-4, 1280x720, 6 229 kb/s, 23.976 fps,
    Аудио: AAC LC, 196 kbps, 48,0 KHz, 2 ch---Скриншоты:

    MediaInfo

    General
    Complete name : Okusama ga Seito Kaichou TV-1
    Format : MPEG-4
    Format profile : Base Media
    Codec ID : isom (isom)
    File size : 110 MiB
    Duration : 7 min 59 s
    Overall bit rate mode : Variable
    Overall bit rate : 1 915 kb/s
    Encoded date : UTC 2015-07-03 11:50:17
    Tagged date : UTC 2015-07-03 11:50:17
    Writing application : Yamb 2.1.0.0 [http://yamb.unite-video.com]
    Video
    ID : 1
    Format : AVC
    Format/Info : Advanced Video Codec
    Format profile : High@L4.1
    Format settings : CABAC / 4 Ref Frames
    Format settings, CABAC : Yes
    Format settings, Reference : 4 frames
    Codec ID : avc1
    Codec ID/Info : Advanced Video Coding
    Duration : 7 min 59 s
    Bit rate : 1 719 kb/s
    Maximum bit rate : 6 229 kb/s
    Width : 1 280 pixels
    Height : 720 pixels
    Display aspect ratio : 16:9
    Frame rate mode : Constant
    Frame rate : 23.976 (24000/1001) FPS
    Color space : YUV
    Chroma subsampling : 4:2:0
    Bit depth : 8 bits
    Scan type : Progressive
    Bits/(Pixel*Frame) : 0.078
    Stream size : 98.3 MiB (90%)
    Title : 264
    Writing library : x264 core 129 r2245+729M 1a52e03
    Encoding settings : cabac=1 / ref=4 / deblock=1:1:-1 / analyse=0x3:0x113 / me=umh / subme=9 / psy=1 / fade_compensate=0.00 / psy_rd=1.00:0.00 / mixed_ref=1 / me_range=24 / chroma_me=1 / trellis=2 / 8x8dct=1 / cqm=0 / deadzone=21,11 / fast_pskip=1 / chroma_qp_offset=-2 / threads=8 / lookahead_threads=1 / sliced_threads=0 / nr=0 / decimate=1 / interlaced=0 / bluray_compat=0 / constrained_intra=0 / fgo=0 / bframes=9 / b_pyramid=2 / b_adapt=2 / b_bias=0 / direct=1 / weightb=1 / open_gop=0 / weightp=2 / keyint=240 / keyint_min=24 / scenecut=40 / intra_refresh=0 / rc=crf / mbtree=0 / crf=18.5 / qcomp=0.72 / qpmin=0 / qpmax=69 / qpstep=4 / ip_ratio=1.40 / pb_ratio=1.30 / aq=1:0.85
    Encoded date : UTC 2015-07-01 17:09:43
    Tagged date : UTC 2015-07-03 11:50:18
    Color range : Limited
    Color primaries : BT.709
    Transfer characteristics : BT.709
    Matrix coefficients : BT.709
    Codec configuration box : avcC
    Audio
    ID : 2
    Format : AAC LC
    Format/Info : Advanced Audio Codec Low Complexity
    Codec ID : mp4a-40-2
    Duration : 7 min 59 s
    Bit rate mode : Variable
    Bit rate : 192 kb/s
    Maximum bit rate : 196 kb/s
    Channel(s) : 2 channels
    Channel layout : L R
    Sampling rate : 48.0 kHz
    Frame rate : 46.875 FPS (1024 SPF)
    Compression mode : Lossy
    Stream size : 11.0 MiB (10%)
    Language : Russian
    Encoded date : UTC 2015-07-03 11:50:17
    Tagged date : UTC 2015-07-03 11:50:18--General
    Complete name : Okusama ga Seito Kaichou TV-2
    Format : MPEG-4
    Format profile : Base Media
    Codec ID : isom (isom)
    File size : 205 MiB
    Duration : 15 min 33 s
    Overall bit rate mode : Variable
    Overall bit rate : 1 841 kb/s
    Encoded date : UTC 2016-10-09 22:52:27
    Tagged date : UTC 2016-10-09 22:52:27
    Writing application : Yamb 2.1.0.0 [http://yamb.unite-video.com]
    Video
    ID : 1
    Format : AVC
    Format/Info : Advanced Video Codec
    Format profile : Main@L3.2
    Format settings : CABAC / 3 Ref Frames
    Format settings, CABAC : Yes
    Format settings, Reference : 3 frames
    Codec ID : avc1
    Codec ID/Info : Advanced Video Coding
    Duration : 15 min 33 s
    Bit rate mode : Variable
    Bit rate : 1 645 kb/s
    Maximum bit rate : 9 850 kb/s
    Width : 1 280 pixels
    Height : 720 pixels
    Display aspect ratio : 16:9
    Frame rate mode : Variable
    Frame rate : 23.976 (24000/1001) FPS
    Minimum frame rate : 23.976 FPS
    Maximum frame rate : 23.988 FPS
    Standard : NTSC
    Color space : YUV
    Chroma subsampling : 4:2:0
    Bit depth : 8 bits
    Scan type : Progressive
    Bits/(Pixel*Frame) : 0.074
    Stream size : 183 MiB (89%)
    Language : English
    Encoded date : UTC 2016-10-09 21:35:07
    Tagged date : UTC 2016-10-09 22:53:13
    Color range : Limited
    Codec configuration box : avcC
    Audio
    ID : 2
    Format : AAC LC
    Format/Info : Advanced Audio Codec Low Complexity
    Codec ID : mp4a-40-2
    Duration : 15 min 33 s
    Bit rate mode : Variable
    Bit rate : 192 kb/s
    Maximum bit rate : 196 kb/s
    Channel(s) : 2 channels
    Channel layout : L R
    Sampling rate : 48.0 kHz
    Frame rate : 46.875 FPS (1024 SPF)
    Compression mode : Lossy
    Stream size : 21.4 MiB (10%)
    Language : English
    Encoded date : UTC 2016-10-09 22:53:13
    Tagged date : UTC 2016-10-09 22:53:13
    Показать сообщения:    
    Главная  Аниме  Сериалы  Аниме Сериалы (HD)

    Текущее время: 31-Май 11:00

    Часовой пояс: UTC + 5



    Вы не можете начинать темы
    Вы не можете отвечать на сообщения
    Вы не можете редактировать свои сообщения
    Вы не можете удалять свои сообщения
    Вы не можете голосовать в опросах
    Вы не можете прикреплять файлы к сообщениям
    Вы не можете скачивать файлы