Что вы здесь делаете, сэнсэй? / Nande Koko ni Sensei ga!? [1 Сезон + OVA] [Серии 1-12 + OVA] (Канэко Хираку) [2019, Комедия, романтика, сэйнэн, школа, BDRip 1080p] (Anilibria, AniDUB) | Без Цензуры :: UZTOR.PW Лучший трекер в зоне TAS-IX!
 
Уважаемые гости сайта! Добро Пожаловать на наш торрент трекер,где Вы можете бесплатно скачать любой Софт,Фильмы,Музыку и многое другое! А так же постоянно ведется набор модераторов и релизеров. Зарегистрируйтесь сейчас, чтобы получить доступ ко всем функциям. После регистрации или входа на сайт вы сможете создавать темы, отвечать на сообщения и скачивать файлы.

Навигация по Торрент раздачам и Форум и Стол заказов и Группы



  Что вы здесь делаете, сэнсэй? / Nande Koko ni Sensei ga!? [1 Сезон + OVA] [Серии 1-12 + OVA] (Канэко Хираку) [2019, Комедия, романтика, сэйнэн, школа, BDRip 1080p] (Anilibria, AniDUB) | Без Цензуры

Главная  Аниме  Сериалы  Аниме Сериалы (HD)
Статистика раздачи
Нет
 
     
 
 
Автор Сообщение
  • -InVoKeR- ®
  • Не в сети
  • Автор темы

  • 5057
  • VIP пользователь

  • Пол: Мужской

  • Стаж: 1 год 6 месяцев

  • Сообщений: 557

  •  Узбекистан

  • Откуда: из Криптона

  • Провайдер: UzOnline UzOnline

  • Тарифный план: Unlim 4 (Мир: 4 Мбит/с, Tas-ix: 100Мбит/с)

  • Steam: 76561198442747843

  • Telegram: i_Invoker

  • Карма: 1120


  • Наличие запрета:

  • Награды: 22 (Подробнее)
    Admin (Количество: 1) Авторитет (Количество: 1) Активный релизер 1 (Количество: 1) Активный релизер 2 (Количество: 1) Активный сидер 1 (Количество: 1)
  • Создавать темы 06-Апр-2020 00:21

    Что вы здесь делаете, сэнсэй? / Nande Koko ni Sensei ga!?-- Год: 2019
    Жанр: комедия, романтика, сэйнэн, школа
    Категория: TV сериалы
    Выпуск: с 8 апреля 2019 по 24 июня 2019
    Трансляция: понедельник в 01:05 [ночной сеанс] на Tokyo MX TV
    Продолжительность : 12 эпизодов x ~00:12:00 + 1 спешл, 15 мин
    Производство: Япония
    Студия: Tear Studio
    Перевод #1 (Сериал): Любительский (многоголосый, закадровый) Anilibria [Cleo-chan, Gomer, Narea]
    Перевод #2 (Сериал): Любительский (ДвухГолосый, закадровый) Anidub [Gecep, Vel]
    Перевод #1 (Спешл): Любительский (Одноголосый, закадровый) Хз Lol[Женский]-Режиссер: Канэко Хираку
    Автор оригинала: Соборо-Снято по манге: Что вы здесь делаете, сэнсэй?
    Цензура: Нет
    Возрастное ограничение: 18+
    [Запрещено для детей! Данная версия аниме сериала содержит большое количество сцен с обнажённой натурой !]
    -Описание: В центре повествования старшеклассник Ичиро и его учительница Кодзима-сэнсэй (возможно, гений), строгая и требовательная, которую из-за этого в школе прозвали «Демоном». Однако рядом с Ичиро она превращается в легкомысленную и неуклюжую девушку, которая к тому же постоянно попадает с ним в пикантные ситуации в довольно неожиданных местах: в мужском туалете, в мужской бане, в бассейне, в медкабинете и где только не...-Качество: BDRip 1080p
    Формат: MKV
    Видео: AVC, 1920x1080 (16:9), 23.976 fps, 3 372 kb/s (0.068 bit/pixel)
    Аудио №1: AC-3, 48.0 kHz, 2 ch, 192 kb/s, | | Anilibria
    Аудио №2: AC-3, 48.0 kHz, 2 ch, 192 kb/s, | | Anidub
    Аудио : AC-3, 48.0 kHz, 2 ch, 192 kb/s, | | Хз Lol
    Аудио №3: FLAC, 48.0 kHz, 2 ch, 1 459 kb/s, VBR | | Japan (Оригинал)
    Субтитры: Русские (SovetRomantika) [Эпизоды 01-12]--

    MediaInfo

    General
    Unique ID : 193545481668642074350756142179581199649 (0x919B80FDEDD223D5B209AB76F4988521)
    Complete name : [Moozzi2] Nande Koko ni Sensei ga! - 01 [ Uncensored Ver. ] (BD 1920x1080 x.264 Flac) [Deadmauvlad].mkv
    Format : Matroska
    Format version : Version 2
    File size : 432 MiB
    Duration : 11 min 29 s
    Overall bit rate mode : Variable
    Overall bit rate : 5 247 kb/s
    Encoded date : UTC 2019-12-23 03:09:16
    Writing application : mkvmerge v7.8.0 ('River Man') 32bit built on Apr 3 2015 12:11:22
    Writing library : libebml v1.3.1 + libmatroska v1.4.2
    Video
    ID : 1
    Format : AVC
    Format/Info : Advanced Video Codec
    Format profile : High@L5
    Format settings : CABAC / 5 Ref Frames
    Format settings, CABAC : Yes
    Format settings, ReFrames : 5 frames
    Codec ID : V_MPEG4/ISO/AVC
    Duration : 11 min 29 s
    Bit rate : 3 372 kb/s
    Width : 1 920 pixels
    Height : 1 080 pixels
    Display aspect ratio : 16:9
    Frame rate mode : Constant
    Frame rate : 23.976 (24000/1001) FPS
    Color space : YUV
    Chroma subsampling : 4:2:0
    Bit depth : 8 bits
    Scan type : Progressive
    Bits/(Pixel*Frame) : 0.068
    Stream size : 277 MiB (64%)
    Writing library : x264 core 157 r2935 545de2f
    Encoding settings : cabac=1 / ref=5 / deblock=1:1:1 / analyse=0x3:0x113 / me=umh / subme=9 / psy=1 / psy_rd=1.00:0.00 / mixed_ref=1 / me_range=32 / chroma_me=1 / trellis=1 / 8x8dct=1 / cqm=0 / deadzone=21,11 / fast_pskip=0 / chroma_qp_offset=-2 / threads=34 / lookahead_threads=2 / sliced_threads=0 / nr=0 / decimate=1 / interlaced=0 / bluray_compat=0 / stitchable=1 / constrained_intra=0 / bframes=3 / b_pyramid=2 / b_adapt=2 / b_bias=0 / direct=1 / weightb=1 / open_gop=0 / weightp=1 / keyint=240 / keyint_min=23 / scenecut=40 / intra_refresh=0 / rc_lookahead=40 / rc=crf / mbtree=1 / crf=16.0 / qcomp=0.65 / qpmin=0 / qpmax=69 / qpstep=4 / ip_ratio=1.40 / aq=1:1.00
    Language : Japanese
    Default : Yes
    Forced : No
    Audio #1
    ID : 2
    Format : AC-3
    Format/Info : Audio Coding 3
    Commercial name : Dolby Digital
    Codec ID : A_AC3
    Duration : 11 min 29 s
    Bit rate mode : Constant
    Bit rate : 192 kb/s
    Channel(s) : 2 channels
    Channel layout : L R
    Sampling rate : 48.0 kHz
    Frame rate : 31.250 FPS (1536 SPF)
    Bit depth : 16 bits
    Compression mode : Lossy
    Stream size : 15.8 MiB (4%)
    Title : RUS MVO [Anilibria] [Cleo-chan, Gomer, Narea] [Сведение by Deadmauvlad]
    Language : Russian
    Default : Yes
    Forced : No
    Audio #2
    ID : 3
    Format : AC-3
    Format/Info : Audio Coding 3
    Commercial name : Dolby Digital
    Codec ID : A_AC3
    Duration : 11 min 29 s
    Bit rate mode : Constant
    Bit rate : 192 kb/s
    Channel(s) : 2 channels
    Channel layout : L R
    Sampling rate : 48.0 kHz
    Frame rate : 31.250 FPS (1536 SPF)
    Bit depth : 16 bits
    Compression mode : Lossy
    Stream size : 15.8 MiB (4%)
    Title : RUS DVO [Anidub] [ Gecep, Vel] [Сведение by Deadmauvlad]
    Language : Russian
    Default : No
    Forced : No
    Audio #3
    ID : 4
    Format : FLAC
    Format/Info : Free Lossless Audio Codec
    Codec ID : A_FLAC
    Duration : 11 min 29 s
    Bit rate mode : Variable
    Bit rate : 1 459 kb/s
    Channel(s) : 2 channels
    Channel layout : L R
    Sampling rate : 48.0 kHz
    Frame rate : 11.719 FPS (4096 SPF)
    Bit depth : 24 bits
    Compression mode : Lossless
    Stream size : 120 MiB (28%)
    Writing library : libFLAC 1.3.2 (UTC 2017-01-01)
    Language : Japanese
    Default : No
    Forced : No
    Text
    ID : 5
    Format : ASS
    Codec ID : S_TEXT/ASS
    Codec ID/Info : Advanced Sub Station Alpha
    Compression mode : Lossless
    Title : RUS SUB [SovetRomantika]
    Language : Russian
    Default : No
    Forced : No
    -

    _________________
    Показать сообщения:    
    Главная  Аниме  Сериалы  Аниме Сериалы (HD)

    Текущее время: 25-Май 22:08

    Часовой пояс: UTC + 5



    Вы не можете начинать темы
    Вы не можете отвечать на сообщения
    Вы не можете редактировать свои сообщения
    Вы не можете удалять свои сообщения
    Вы не можете голосовать в опросах
    Вы не можете прикреплять файлы к сообщениям
    Вы не можете скачивать файлы