Скучный мир, где не существует самой идеи похабных шуток / Shimoneta to Iu Gainen ga Sonzai Shinai Taikutsu na Sekai (Судзуки Ёхэй) [TV-1] (12-12) [2015, комедия, этти, школа, BDRip] (720p) :: UZTOR.PW Лучший трекер в зоне TAS-IX!
 
Уважаемые гости сайта! Добро Пожаловать на наш торрент трекер,где Вы можете бесплатно скачать любой Софт,Фильмы,Музыку и многое другое! А так же постоянно ведется набор модераторов и релизеров. Зарегистрируйтесь сейчас, чтобы получить доступ ко всем функциям. После регистрации или входа на сайт вы сможете создавать темы, отвечать на сообщения и скачивать файлы.

Навигация по Торрент раздачам и Форум и Стол заказов и Группы



 Скучный мир, где не существует самой идеи похабных шуток / Shimoneta to Iu Gainen ga Sonzai Shinai Taikutsu na Sekai (Судзуки Ёхэй) [TV-1] (12-12) [2015, комедия, этти, школа, BDRip] (720p)

Главная  Аниме  Сериалы  Аниме Сериалы (HD)
Статистика раздачи
Нет
 
     
 
 
 
Автор Сообщение
  • Abercrombie ®
  • Не в сети

    Автор темы

  • 5397
  • Пол: Мужской

  • Стаж: 1 год 3 месяца

  • Сообщений: 27

  • Откуда: Ташкент

  • Провайдер: FiberNet FiberNet

  • Telegram: Persik_life

  • Карма: 102


  • Нет нарушения:

  • Награды: Нет
  • Создавать темы 05-Апр-2020 13:11

    Скучный мир, где не существует самой идеи похабных шуток
    Shimoneta to Iu Gainen ga Sonzai Shinai Taikutsu na Sekai / 下ネタという概念が存在しない退屈な世界

    -Производство:Япония
    Жанр: комедия, этти, школа
    Тип: ТВ (12 эп.), 25 мин.
    Выпуск: c 04.07.2015 по 19.09.2015
    Режиссёр: Судзуки Ёхэй
    Снято по ранобэ: Скучный мир, где не существует самой идеи похабных шуток
    Автор оригинала: Акаги Хиротака
    Рейтинг: R+ (Лицам до 17 лет просмотр запрещён)
    Студия:
    Озвучивание: JAM, Nika Lenina
    Перевод: Sa4ko aka Kiyoso
    Тайминг и работа со звуком: Yashiro- -Описание: Шестнадцать лет назад в Японии был принят закон «О воспитании детей и общественном порядке», запрещающий любое поведение, выходящее за рамки человеческой нравственности. В результате этого в обществе возник культ добродетели и морали, возникли даже особые школы. В одно из таких учебных заведений, пропагандирующих благопристойность и вежливость, поступает и Танукичи Окума.
    Но кто же мог предположить, что в этом оплоте порядка действует террористическая организация «SOX», специализирующаяся на безнравственных актах вандализма. Шантажом и обманом Танукичи заставляют присоединиться к этой системе. Теперь он вынужден участвовать в безнравственных атаках на Анну, первую ученицу школы и президента студсовета. Вскоре ситуация неожиданно осложняется, когда новоявленный член террористической организации влюбляется в свою жертву.-Качество: BDRip 720p
    Формат: mp4
    Видео: MPEG-4, 1280x720, 8 897 kb/s, 23.976 fps,
    Аудио: AAC LC, 138 kbps, 48,0 KHz, 2 ch-Скриншоты:

    MediaInfo

    Format : MPEG-4
    Format profile : Base Media
    Codec ID : isom (isom)
    File size : 341 MiB
    Duration : 24 min 0 s
    Overall bit rate mode : Variable
    Overall bit rate : 1 988 kb/s
    Encoded date : UTC 2015-07-11 17:57:49
    Tagged date : UTC 2015-07-11 17:57:49
    Video
    ID : 1
    Format : AVC
    Format/Info : Advanced Video Codec
    Format profile : High@L4.1
    Format settings : CABAC / 4 Ref Frames
    Format settings, CABAC : Yes
    Format settings, Reference : 4 frames
    Codec ID : avc1
    Codec ID/Info : Advanced Video Coding
    Duration : 24 min 0 s
    Bit rate : 1 856 kb/s
    Maximum bit rate : 8 897 kb/s
    Width : 1 280 pixels
    Height : 720 pixels
    Display aspect ratio : 16:9
    Frame rate mode : Constant
    Frame rate : 23.976 (24000/1001) FPS
    Color space : YUV
    Chroma subsampling : 4:2:0
    Bit depth : 8 bits
    Scan type : Progressive
    Bits/(Pixel*Frame) : 0.084
    Stream size : 319 MiB (93%)
    Title : 264
    Writing library : x264 core 129 r2245+729M 1a52e03
    Encoding settings : cabac=1 / ref=4 / deblock=1:1:-1 / analyse=0x3:0x113 / me=umh / subme=9 / psy=1 / fade_compensate=0.00 / psy_rd=1.00:0.00 / mixed_ref=1 / me_range=24 / chroma_me=1 / trellis=2 / 8x8dct=1 / cqm=0 / deadzone=21,11 / fast_pskip=1 / chroma_qp_offset=-2 / threads=8 / lookahead_threads=1 / sliced_threads=0 / nr=0 / decimate=1 / interlaced=0 / bluray_compat=0 / constrained_intra=0 / fgo=0 / bframes=9 / b_pyramid=2 / b_adapt=2 / b_bias=0 / direct=1 / weightb=1 / open_gop=0 / weightp=2 / keyint=240 / keyint_min=24 / scenecut=40 / intra_refresh=0 / rc=crf / mbtree=0 / crf=18.5 / qcomp=0.72 / qpmin=0 / qpmax=69 / qpstep=4 / ip_ratio=1.40 / pb_ratio=1.30 / aq=1:0.85
    Encoded date : UTC 2015-07-06 11:17:59
    Tagged date : UTC 2015-07-11 17:58:03
    Color range : Limited
    Color primaries : BT.709
    Transfer characteristics : BT.709
    Matrix coefficients : BT.709
    Codec configuration box : avcC
    Audio
    ID : 2
    Format : AAC LC
    Format/Info : Advanced Audio Codec Low Complexity
    Codec ID : mp4a-40-2
    Duration : 24 min 0 s
    Bit rate mode : Variable
    Bit rate : 128 kb/s
    Maximum bit rate : 138 kb/s
    Channel(s) : 2 channels
    Channel layout : L R
    Sampling rate : 48.0 kHz
    Frame rate : 46.875 FPS (1024 SPF)
    Compression mode : Lossy
    Stream size : 22.0 MiB (6%)
    Language : Russian
    Encoded date : UTC 2015-07-11 17:58:02
    Tagged date : UTC 2015-07-11 17:58:03
    Показать сообщения:    
    Главная  Аниме  Сериалы  Аниме Сериалы (HD)

    Текущее время: 25-Сен 17:13

    Часовой пояс: UTC + 5



    Вы не можете начинать темы
    Вы не можете отвечать на сообщения
    Вы не можете редактировать свои сообщения
    Вы не можете удалять свои сообщения
    Вы не можете голосовать в опросах
    Вы не можете прикреплять файлы к сообщениям
    Вы не можете скачивать файлы