Что вы здесь делаете, сэнсэй? / Nande Koko ni Sensei ga!? [1 Сезон + OVA] [Серии 1-12 + OVA] (Канэко Хираку) [2019, Комедия, романтика, сэйнэн, школа, BDRip] (Anilibria, AniDUB) | Без Цензуры :: UZTOR.PW Лучший трекер в зоне TAS-IX!
 
Уважаемые гости сайта! Добро Пожаловать на наш торрент трекер,где Вы можете бесплатно скачать любой Софт,Фильмы,Музыку и многое другое! А так же постоянно ведется набор модераторов и релизеров. Зарегистрируйтесь сейчас, чтобы получить доступ ко всем функциям. После регистрации или входа на сайт вы сможете создавать темы, отвечать на сообщения и скачивать файлы.

Навигация по Торрент раздачам и Форум и Стол заказов и Группы



  Что вы здесь делаете, сэнсэй? / Nande Koko ni Sensei ga!? [1 Сезон + OVA] [Серии 1-12 + OVA] (Канэко Хираку) [2019, Комедия, романтика, сэйнэн, школа, BDRip] (Anilibria, AniDUB) | Без Цензуры

Главная  Аниме  Сериалы  Аниме Сериалы
Статистика раздачи
Нет
 
     
 
 
Автор Сообщение
  • -InVoKeR- ®
  • Не в сети
  • Автор темы

  • 5057
  • VIP пользователь

  • Пол: Мужской

  • Стаж: 1 год 6 месяцев

  • Сообщений: 557

  •  Узбекистан

  • Откуда: из Криптона

  • Провайдер: UzOnline UzOnline

  • Тарифный план: Unlim 4 (Мир: 4 Мбит/с, Tas-ix: 100Мбит/с)

  • Steam: 76561198442747843

  • Telegram: i_Invoker

  • Карма: 1120


  • Наличие запрета:

  • Награды: 22 (Подробнее)
    Admin (Количество: 1) Авторитет (Количество: 1) Активный релизер 1 (Количество: 1) Активный релизер 2 (Количество: 1) Активный сидер 1 (Количество: 1)
  • Создавать темы 03-Апр-2020 10:15

    Что вы здесь делаете, сэнсэй? / Nande Koko ni Sensei ga!?-- Год: 2019
    Жанр: комедия, романтика, сэйнэн, школа
    Категория: TV сериалы
    Выпуск: с 8 апреля 2019 по 24 июня 2019
    Трансляция: понедельник в 01:05 [ночной сеанс] на Tokyo MX TV
    Продолжительность : 12 эпизодов x ~00:12:00 + 1 спешл, 15 мин
    Производство: Япония
    Студия: Tear Studio
    Перевод #1 (Сериал): Любительский (многоголосый, закадровый) Anilibria [Cleo-chan, Gomer, Narea]
    Перевод #2 (Сериал): Любительский (ДвухГолосый, закадровый) Anidub [Gecep, Vel]
    Перевод #1 (Спешл): Любительский (Одноголосый, закадровый) Хз Lol[Женский]-Режиссер: Канэко Хираку
    Автор оригинала: Соборо-Снято по манге: Что вы здесь делаете, сэнсэй?
    Цензура: Нет
    Возрастное ограничение: 18+
    [Запрещено для детей! Данная версия аниме сериала содержит большое количество сцен с обнажённой натурой !]
    -Описание: В центре повествования старшеклассник Ичиро и его учительница Кодзима-сэнсэй (возможно, гений), строгая и требовательная, которую из-за этого в школе прозвали «Демоном». Однако рядом с Ичиро она превращается в легкомысленную и неуклюжую девушку, которая к тому же постоянно попадает с ним в пикантные ситуации в довольно неожиданных местах: в мужском туалете, в мужской бане, в бассейне, в медкабинете и где только не...-Качество: BDRip
    Формат: AVI
    Видео: Xvid, 720x400 (16:9), 23.976 fps, 1454 kb/s (0.211 bit/pixel)
    Аудио №1: AC-3, 48.0 kHz, 2 ch, 192 kb/s, | | Anilibria
    Аудио №2: AC-3, 48.0 kHz, 2 ch, 192 kb/s, | | Anidub
    Аудио : AC-3, 48.0 kHz, 2 ch, 192 kb/s, | | Хз Lol
    Аудио №3: AC-3, 48.0 kHz, 2 ch, 192 kb/s, | | Japan (Оригинал)
    Субтитры: Русские (SovetRomantika) [Эпизоды 01-12]--

    MediaInfo

    General
    Complete name : [Deadmau- RAWS] Nande.Koko.ni.Sensei.ga.S01.Версия.Без.Цензуры.BDRip.Deadmauvlad.Ep.01.avi
    Format : AVI
    Format/Info : Audio Video Interleave
    File size : 169 MiB
    Duration : 11 min 29 s
    Overall bit rate : 2 049 kb/s
    Movie name : [Deadmau- RAWS] Почему.Вы.здесь.сэнсэй.S01.Версия.Без.Цензуры.BDRip.Deadmauvlad.Эпизод.01
    Director : Encoder by Deadmauvlad
    Genre : школа, сейнен, этти
    Writing application : VirtualDubMod 1.5.10.3 | www.virtualdub-fr.org || (build 2550/release)
    Original source form/Name : Аниме
    Copyright : Encoder by Deadmauvlad
    Comment : Encoder by Deadmauvlad
    Video
    ID : 0
    Format : MPEG-4 Visual
    Format profile : Advanced Simple@L5
    Format settings : BVOP1 / Custom Matrix
    Format settings, BVOP : 1
    Format settings, QPel : No
    Format settings, GMC : No warppoints
    Format settings, Matrix : Custom
    Codec ID : XVID
    Codec ID/Hint : XviD
    Duration : 11 min 29 s
    Bit rate : 1 454 kb/s
    Width : 720 pixels
    Height : 400 pixels
    Display aspect ratio : 16:9
    Frame rate : 23.976 (24000/1001) FPS
    Color space : YUV
    Chroma subsampling : 4:2:0
    Bit depth : 8 bits
    Scan type : Progressive
    Compression mode : Lossy
    Bits/(Pixel*Frame) : 0.211
    Stream size : 120 MiB (71%)
    Writing library : XviD 73
    Audio #1
    ID : 1
    Format : AC-3
    Format/Info : Audio Coding 3
    Commercial name : Dolby Digital
    Codec ID : 2000
    Duration : 11 min 29 s
    Bit rate mode : Constant
    Bit rate : 192 kb/s
    Channel(s) : 2 channels
    Channel layout : L R
    Sampling rate : 48.0 kHz
    Frame rate : 31.250 FPS (1536 SPF)
    Bit depth : 16 bits
    Compression mode : Lossy
    Stream size : 15.8 MiB (9%)
    Alignment : Split accross interleaves
    Interleave, duration : 42 ms (1.00 video frame)
    Interleave, preload duration : 500 ms
    Audio #2
    ID : 2
    Format : AC-3
    Format/Info : Audio Coding 3
    Commercial name : Dolby Digital
    Codec ID : 2000
    Duration : 11 min 29 s
    Bit rate mode : Constant
    Bit rate : 192 kb/s
    Channel(s) : 2 channels
    Channel layout : L R
    Sampling rate : 48.0 kHz
    Frame rate : 31.250 FPS (1536 SPF)
    Bit depth : 16 bits
    Compression mode : Lossy
    Stream size : 15.8 MiB (9%)
    Alignment : Split accross interleaves
    Interleave, duration : 42 ms (1.00 video frame)
    Interleave, preload duration : 500 ms
    Audio #3
    ID : 3
    Format : AC-3
    Format/Info : Audio Coding 3
    Commercial name : Dolby Digital
    Codec ID : 2000
    Duration : 11 min 29 s
    Bit rate mode : Constant
    Bit rate : 192 kb/s
    Channel(s) : 2 channels
    Channel layout : L R
    Sampling rate : 48.0 kHz
    Frame rate : 31.250 FPS (1536 SPF)
    Bit depth : 16 bits
    Compression mode : Lossy
    Stream size : 15.8 MiB (9%)
    Alignment : Split accross interleaves
    Interleave, duration : 42 ms (1.00 video frame)
    Interleave, preload duration : 500 ms
    -

    _________________
    Показать сообщения:    
    Главная  Аниме  Сериалы  Аниме Сериалы

    Текущее время: 25-Май 23:47

    Часовой пояс: UTC + 5



    Вы не можете начинать темы
    Вы не можете отвечать на сообщения
    Вы не можете редактировать свои сообщения
    Вы не можете удалять свои сообщения
    Вы не можете голосовать в опросах
    Вы не можете прикреплять файлы к сообщениям
    Вы не можете скачивать файлы