Видоизменённый углерод: Восстановленный / Altered Carbon: Resleeved (Такещи Накадзима, Ёщиюки Окада) [2020, Фантастика, Боевики, Приключения, WEBRip][720] :: UZTOR.PW Лучший трекер в зоне TAS-IX!
 
Уважаемые гости сайта! Добро Пожаловать на наш торрент трекер,где Вы можете бесплатно скачать любой Софт,Фильмы,Музыку и многое другое! А так же постоянно ведется набор модераторов и релизеров. Зарегистрируйтесь сейчас, чтобы получить доступ ко всем функциям. После регистрации или входа на сайт вы сможете создавать темы, отвечать на сообщения и скачивать файлы.

Навигация по Торрент раздачам и Форум и Стол заказов и Группы



 Видоизменённый углерод: Восстановленный / Altered Carbon: Resleeved (Такещи Накадзима, Ёщиюки Окада) [2020, Фантастика, Боевики, Приключения, WEBRip][720]

Главная  Аниме  Манга и OVA  Артбуки и Полнометражки
Статистика раздачи
Нет
 
     
 
 
 
Автор Сообщение
  • Abercrombie ®
  • Не в сети

    Автор темы

  • 5397
  • Пол: Мужской

  • Стаж: 1 год 3 месяца

  • Сообщений: 27

  • Откуда: Ташкент

  • Провайдер: FiberNet FiberNet

  • Telegram: Persik_life

  • Карма: 102


  • Нет нарушения:

  • Награды: Нет
  • Создавать темы 28-Мар-2020 13:41

    -Видоизменённый углерод: Восстановленный / Altered Carbon: Resleeved
    -Год выпуска: 2020
    Страна: Япония
    Жанр: Фантастика, Боевики, Приключения
    Продолжительность: 74мин.
    Перевод: Профессиональный (многоголосый) HDrezka
    Возраст: 18+ только для взрослых
    Режиссер: Такещи Накадзима, Ёщиюки Окада
    В ролях: Тацухиса Судзуки, Дзёдзи Наката, Аяка Асаи, Канехира Ямамото, Сато Рина и другие-IMDb: 6.6 (1 870)
    Кинопоиск: 6.45 (175)
    -Описание: Действие разворачивается в далеком будущем на планете Латимер вокруг молодой татуировщицы Холли, которой угрожает смертельная опасность. Пытаясь оторваться от преследователей, она скрывается в ночном клубе, где предпринимает попытку переместить собственное сознание в безопасное место. Когда таинственному убийце и членам якудзы, ведущим охоту на Холли, удается вновь выйти на след героини, единственным человеком, способным спасти ее от верной смерти, оказывается Такеши Ковач — первоклассный наемник, преследующий личные цели...-Качество: WEBRip
    Формат: MKV
    Видео кодек: AVC, 5 269 kb/s, 1280x720
    Аудио кодек: AC3, 2 ch, 192 kb/s

    Скриншоты

    MediaInfo

    Format : Matroska
    Format version : Version 4
    File size : 2.86 GiB
    Duration : 1 h 14 min
    Overall bit rate mode : Variable
    Overall bit rate : 5 463 kb/s
    Encoded date : UTC 2020-03-22 03:34:29
    Writing application : mkvmerge v28.2.0 ('The Awakening') 64-bit
    Writing library : libebml v1.3.6 + libmatroska v1.4.9
    Video
    ID : 1
    Format : AVC
    Format/Info : Advanced Video Codec
    Format profile : High@L4.1
    Format settings : CABAC / 1 Ref Frames
    Format settings, CABAC : Yes
    Format settings, Reference : 1 frame
    Codec ID : V_MPEG4/ISO/AVC
    Duration : 1 h 14 min
    Bit rate mode : Variable
    Bit rate : 5 269 kb/s
    Maximum bit rate : 2 000 kb/s
    Width : 1 280 pixels
    Height : 720 pixels
    Display aspect ratio : 16:9
    Frame rate mode : Constant
    Frame rate : 24.000 FPS
    Color space : YUV
    Chroma subsampling : 4:2:0
    Bit depth : 8 bits
    Scan type : Progressive
    Bits/(Pixel*Frame) : 0.238
    Stream size : 2.76 GiB (96%)
    Default : Yes
    Forced : No
    Audio
    ID : 2
    Format : AC-3
    Format/Info : Audio Coding 3
    Commercial name : Dolby Digital
    Codec ID : A_AC3
    Duration : 1 h 14 min
    Bit rate mode : Constant
    Bit rate : 192 kb/s
    Channel(s) : 2 channels
    Channel layout : L R
    Sampling rate : 48.0 kHz
    Frame rate : 31.250 FPS (1536 SPF)
    Compression mode : Lossy
    Stream size : 103 MiB (4%)
    Language : Russian
    Service kind : Complete Main
    Default : Yes
    Forced : No

      -746

    Создавать темы 06-Апр-2020 00:26 (спустя 8 дней)

    Топик был перенесен из форума Зарубежные мультфильмы в форум Артбуки и Полнометражки


    -InVoKeR-
    Показать сообщения:    
    Главная  Аниме  Манга и OVA  Артбуки и Полнометражки

    Текущее время: 29-Сен 10:19

    Часовой пояс: UTC + 5



    Вы не можете начинать темы
    Вы не можете отвечать на сообщения
    Вы не можете редактировать свои сообщения
    Вы не можете удалять свои сообщения
    Вы не можете голосовать в опросах
    Вы не можете прикреплять файлы к сообщениям
    Вы не можете скачивать файлы