21 мост / 21 Bridges (Брайан Кирк / Brian Kirk) [2019, Боевик, триллер, драма, криминал, WEB-DL 1080p] iTunes :: UZTOR.PW Лучший трекер в зоне TAS-IX!
Регистрация ·
Имя: Пароль:  
· Забыли пароль?
Уважаемые гости сайта! Добро Пожаловать на наш торрент трекер,где Вы можете бесплатно скачать любой Софт,Фильмы,Музыку и многое другое! А так же постоянно ведется набор модераторов и релизеров. Зарегистрируйтесь сейчас, чтобы получить доступ ко всем функциям. После регистрации или входа на сайт вы сможете создавать темы, отвечать на сообщения и скачивать файлы.

Навигация по Торрент раздачам и Форум и Стол заказов и Группы

 21 мост / 21 Bridges (Брайан Кирк / Brian Kirk) [2019, Боевик, триллер, драма, криминал, WEB-DL 1080p] iTunes

Главная  Кинофильмы  Зарубежные кинофильмы  HD
Статистика раздачи
Нет
 
     
 
 
Автор Сообщение
  • NuRKHoNoFF ®
  • Не в сети
  • Автор темы

  • 5064
  • Пол: Мужской

  • Стаж: 1 год 2 месяца

  • Сообщений: 67

  •  Узбекистан

  • Откуда: Каттакурган

  • Провайдер: TPS TPS

  • Карма: 610


  • Наличие запрета:

  • Награды: 17 (Подробнее)
    Активный релизер 1 (Количество: 1) Активный релизер 2 (Количество: 1) Активный релизер 3 (Количество: 1) Активный релизер 4 (Количество: 1) Активный релизер 5 (Количество: 1)
  • Создавать темы 02-Фев-2020 23:28

    21 мост / 21 Bridges -Год выпуска: 2019
    Страна: США
    Жанр: Боевик, триллер, драма, криминал
    Продолжительность: 01:39:32
    Перевод: Дублированный [iTunes]-Режиссер: Брайан Кирк / Brian Kirk-В ролях: Чедвик Боузман, Сиенна Миллер, Тейлор Китч, Дж.К. Симмонс, Стефан Джеймс, Кит Дэвид, Александр Сиддиг, Луис Канселми, Виктория Картахена, Гари Карр-Описание: Он охотится на преступников, которые совершили на Манхэттене дерзкое ограбление, оставив после себя 8 мертвых полицейских. А продажные копы тем временем охотятся на него, пытаясь подставить. Но преступникам не скрыться, так как первый раз в истории Нью-Йорка полиция перекрыла все выходы с острова, в том числе 21 мост.
    - -Качество: WEB-DL 1080p
    Формат: MKV
    Видео: AVC, 4598 Kb/s, 1908x796
    Аудио: AC3, 6 ch, 384 kb/s-

    MediaInfo

    General
    Unique ID : 241362727683016811425168103911264721425 (0xB594C53D8BD374C7B22C1B7FCE2D9A11)
    Complete name : 21.most.2019.WEB-DL.1080p.ELEKTRI4KA.UNIONGANG.mkv
    Format : Matroska
    Format version : Version 4
    File size : 3.47 GiB
    Duration : 1 h 39 min
    Overall bit rate : 4 984 kb/s
    Encoded date : UTC 2020-02-03 19:29:26
    Writing application : mkvmerge v8.3.0 ('Over the Horizon') 64bit
    Writing library : libebml v1.3.1 + libmatroska v1.4.2
    Video
    ID : 1
    Format : AVC
    Format/Info : Advanced Video Codec
    Format profile : High@L4
    Format settings : CABAC / 5 Ref Frames
    Format settings, CABAC : Yes
    Format settings, Reference : 5 frames
    Codec ID : V_MPEG4/ISO/AVC
    Duration : 1 h 39 min
    Bit rate : 4 598 kb/s
    Width : 1 908 pixels
    Height : 796 pixels
    Display aspect ratio : 2.40:1
    Frame rate mode : Constant
    Frame rate : 23.976 (24000/1001) FPS
    Color space : YUV
    Chroma subsampling : 4:2:0
    Bit depth : 8 bits
    Scan type : Progressive
    Bits/(Pixel*Frame) : 0.126
    Stream size : 3.20 GiB (92%)
    Title : iTunes (ELEKTRI4KA.UNIONGANG)
    Language : English
    Default : Yes
    Forced : No
    Color range : Limited
    Color primaries : BT.709
    Transfer characteristics : BT.709
    Matrix coefficients : BT.709
    Audio
    ID : 2
    Format : AC-3
    Format/Info : Audio Coding 3
    Commercial name : Dolby Digital
    Codec ID : A_AC3
    Duration : 1 h 39 min
    Bit rate mode : Constant
    Bit rate : 384 kb/s
    Channel(s) : 6 channels
    Channel layout : L R C LFE Ls Rs
    Sampling rate : 48.0 kHz
    Frame rate : 31.250 FPS (1536 SPF)
    Compression mode : Lossy
    Stream size : 273 MiB (8%)
    Title : iTunes (ELEKTRI4KA.UNIONGANG)
    Language : Russian
    Service kind : Complete Main
    Default : Yes
    Forced : No

    _________________


    Последний раз редактировалось: NuRKHoNoFF (2020-02-04 02:02), всего редактировалось 1 раз
    • NuRKHoNoFF ®
    • Не в сети
    • Автор темы

    • 5064
    • Пол: Мужской

    • Стаж: 1 год 2 месяца

    • Сообщений: 67

    •  Узбекистан

    • Откуда: Каттакурган

    • Провайдер: TPS TPS

    • Карма: 610


    • Наличие запрета:

    • Награды: 17 (Подробнее)
      Активный релизер 1 (Количество: 1) Активный релизер 2 (Количество: 1) Активный релизер 3 (Количество: 1) Активный релизер 4 (Количество: 1) Активный релизер 5 (Количество: 1)
  • Создавать темы 04-Фев-2020 01:35 (спустя 1 день 2 часа)

    Торрент файл обновлен! Замена на iTunes Тех кто скачал старые релизы так удалите и перекачайте заново! Всем Приятного Просмотра!

    _________________
    Показать сообщения:    
    Главная  Кинофильмы  Зарубежные кинофильмы  HD

    Текущее время: 20-Фев 23:45

    Часовой пояс: UTC + 5



    Вы не можете начинать темы
    Вы не можете отвечать на сообщения
    Вы не можете редактировать свои сообщения
    Вы не можете удалять свои сообщения
    Вы не можете голосовать в опросах
    Вы не можете прикреплять файлы к сообщениям
    Вы не можете скачивать файлы