Финал / Finale (Сорен Юль Петерсен / Søren Juul Petersen) [2018, Ужасы, детектив, WEB-DL 1080p] iTunes :: UZTOR.PW Лучший трекер в зоне TAS-IX!
 
Уважаемые гости сайта! Добро Пожаловать на наш торрент трекер,где Вы можете бесплатно скачать любой Софт,Фильмы,Музыку и многое другое! А так же постоянно ведется набор модераторов и релизеров. Зарегистрируйтесь сейчас, чтобы получить доступ ко всем функциям. После регистрации или входа на сайт вы сможете создавать темы, отвечать на сообщения и скачивать файлы.

Навигация по Торрент раздачам и Форум и Стол заказов и Группы



 Финал / Finale (Сорен Юль Петерсен / Søren Juul Petersen) [2018, Ужасы, детектив, WEB-DL 1080p] iTunes

Главная  Кинофильмы  Зарубежные кинофильмы  HD
Статистика раздачи
Нет
 
     
 
 
Автор Сообщение
  • NuRKHoNoFF ®
  • Не в сети

    Автор темы

  • 5064
  • Пол: Мужской

  • Стаж: 1 год 6 месяцев

  • Сообщений: 165

  •  Узбекистан

  • Откуда: Каттакурган

  • Провайдер: Skyline Skyline

  • Карма: 610


  • Нет нарушения:

  • Награды: 17 (Подробнее)
    Активный релизер 1 (Количество: 1) Активный релизер 2 (Количество: 1) Активный релизер 3 (Количество: 1) Активный релизер 4 (Количество: 1) Активный релизер 5 (Количество: 1)
  • Создавать темы 02-Фев-2020 10:13

    Финал / Finale -Год выпуска: 2019
    Страна: Дания
    Жанр: Ужасы, детектив
    Продолжительность: 01:39:05
    Перевод: Профессиональный (многоголосый, закадровый) [iTunes]-Режиссер: Сорен Юль Петерсен / Søren Juul Petersen-В ролях: Энн Бергфельд, Карин Михельсен, Дэймон Янгер, Кристоффер Фабрициус, Мэдс Коудал, Ким Сёндерхолм, Густав Скавениус, Ларс Кнутсон, Фрейя Меллер-Серенсен, Ян Лёфберг-Описание: По всей стране тишина. Все приклеены к телевизору и смотрят финал. Ни одной души не видно на улицах. На окраине Дании, однако, небольшая заправочная станция все еще нуждается в персонале. И в этот конкретный вечер дежурят две совершенно разные молодые женщины. Агнес, студентка колледжа, пытается работать над своей диссертацией, в то время как наивная Белинда отправляет смс, пытаясь привлечь внимание своего парня. К сожалению, смена не пройдет без происшествий, потому что отсутствие клиентов не означает отсутствие свидетелей...
    - -Качество: WEB-DL 1080p
    Формат: MKV
    Видео: AVC, 4567Kb/s, 1920x804
    Аудио: AC3, 6 ch, 384 Kb/s-

    MediaInfo

    General
    Unique ID : 205356088512964934172186561495973906149 (0x9A7E24DE08201AB5A3C07830273A46E5)
    Complete name : Final.2018.WEB-DL.1080p.ELEKTRI4KA.UNIONGANG.mkv
    Format : Matroska
    Format version : Version 4
    File size : 3.43 GiB
    Duration : 1 h 39 min
    Overall bit rate : 4 953 kb/s
    Encoded date : UTC 2020-02-02 00:23:17
    Writing application : mkvmerge v8.3.0 ('Over the Horizon') 64bit
    Writing library : libebml v1.3.1 + libmatroska v1.4.2
    Video
    ID : 1
    Format : AVC
    Format/Info : Advanced Video Codec
    Format profile : High@L4
    Format settings : CABAC / 5 Ref Frames
    Format settings, CABAC : Yes
    Format settings, Reference : 5 frames
    Codec ID : V_MPEG4/ISO/AVC
    Duration : 1 h 39 min
    Bit rate : 4 567 kb/s
    Width : 1 920 pixels
    Height : 804 pixels
    Display aspect ratio : 2.40:1
    Frame rate mode : Constant
    Frame rate : 24.000 FPS
    Color space : YUV
    Chroma subsampling : 4:2:0
    Bit depth : 8 bits
    Scan type : Progressive
    Bits/(Pixel*Frame) : 0.121
    Stream size : 3.09 GiB (90%)
    Language : English
    Default : Yes
    Forced : No
    Color range : Limited
    Color primaries : BT.709
    Transfer characteristics : BT.709
    Matrix coefficients : BT.709
    Audio
    ID : 2
    Format : AC-3
    Format/Info : Audio Coding 3
    Commercial name : Dolby Digital
    Codec ID : A_AC3
    Duration : 1 h 39 min
    Bit rate mode : Constant
    Bit rate : 384 kb/s
    Channel(s) : 6 channels
    Channel layout : L R C LFE Ls Rs
    Sampling rate : 48.0 kHz
    Frame rate : 31.250 FPS (1536 SPF)
    Compression mode : Lossy
    Stream size : 272 MiB (8%)
    Title : ELEKTRI4KA
    Language : Russian
    Service kind : Complete Main
    Default : Yes
    Forced : No

    _________________
    Показать сообщения:    
    Главная  Кинофильмы  Зарубежные кинофильмы  HD

    Текущее время: 11-Июл 00:10

    Часовой пояс: UTC + 5



    Вы не можете начинать темы
    Вы не можете отвечать на сообщения
    Вы не можете редактировать свои сообщения
    Вы не можете удалять свои сообщения
    Вы не можете голосовать в опросах
    Вы не можете прикреплять файлы к сообщениям
    Вы не можете скачивать файлы