Хороший лжец / The Good Liar (Билл Кондон / Bill Condon) [2019, Драма, детектив, BDRip 1080p, HEVC 10bit] iTunes :: UZTOR.PW Лучший трекер в зоне TAS-IX!
Регистрация ·
Имя: Пароль:  
· Забыли пароль?
Уважаемые гости сайта! Добро Пожаловать на наш торрент трекер,где Вы можете бесплатно скачать любой Софт,Фильмы,Музыку и многое другое! А так же постоянно ведется набор модераторов и релизеров. Зарегистрируйтесь сейчас, чтобы получить доступ ко всем функциям. После регистрации или входа на сайт вы сможете создавать темы, отвечать на сообщения и скачивать файлы.

Навигация по Торрент раздачам и Форум и Стол заказов и Группы

 Хороший лжец / The Good Liar (Билл Кондон / Bill Condon) [2019, Драма, детектив, BDRip 1080p, HEVC 10bit] iTunes

Главная  Кинофильмы  Кинофильмы (HEVC)  Фильмы 2011-2018 годов
Статистика раздачи
Нет
 
     
 
 
Автор Сообщение
  • NuRKHoNoFF ®
  • Не в сети
  • Автор темы

  • 5064
  • Пол: Мужской

  • Стаж: 1 год 2 месяца

  • Сообщений: 67

  •  Узбекистан

  • Откуда: Каттакурган

  • Провайдер: TPS TPS

  • Карма: 610


  • Наличие запрета:

  • Награды: 17 (Подробнее)
    Активный релизер 1 (Количество: 1) Активный релизер 2 (Количество: 1) Активный релизер 3 (Количество: 1) Активный релизер 4 (Количество: 1) Активный релизер 5 (Количество: 1)
  • Создавать темы 31-Янв-2020 04:07

    Хороший лжец / The Good Liar -Год выпуска: 2019
    Страна: Великобритания, США
    Жанр: Драма, детектив
    Продолжительность: 01:49:37
    Перевод: Дублированный [iTunes]-Субтитры: English-Режиссер: Билл Кондон / Bill Condon-В ролях: Хелен Миррен, Иэн МакКеллен, Рассел Тови, Джим Картер, Марк Льюис Джонс, Лори Дэвидсон, Фил Данстер, Лусиан Мсамати, Йоуханнес Хёйкьюр Йоуханнессон, Тунджи Касим-Описание: Профессиональный мошенник Рой Кортни едва верит своей удаче, когда знакомится в сети с богатой вдовой Бетти Маклиш. Очаровав вдову и получив доступ ко всем ее ресурсам, Рой ловит себя на том, что она ему небезразлична.- -Качество: BDRip 1080p HEVC 10bit
    Формат: MKV (x265)
    Видео: HEVC, 1418 Kb/s, 1920x808
    Аудио №1: AC3, 6 ch, 384 Kb/s | RUS
    Аудио №2: AAC, 6 ch, 208 Kb/s | ENG-

    MediaInfo

    General
    Unique ID : 185450113532634508331435470005610557168 (0x8B846486F48123C11E632A36008D2EF0)
    Complete name : The.Good.Liar.2019.1080p.10bit.BluRay.6CH.x265.HEVC.ELEKTRI4KA.UNIONGANG.mkv
    Format : Matroska
    Format version : Version 4
    File size : 1.54 GiB
    Duration : 1 h 49 min
    Overall bit rate : 2 012 kb/s
    Movie name : The.Good.Liar.2019.1080p.10bit.BluRay.6CH.x265.HEVC.ELEKTRI4KA.UNIONGANG
    Encoded date : UTC 2020-01-30 20:32:54
    Writing application : mkvmerge v40.0.0 ('Old Town Road + Pony') 64-bit
    Writing library : libebml v1.3.9 + libmatroska v1.5.2
    Video
    ID : 1
    Format : HEVC
    Format/Info : High Efficiency Video Coding
    Format profile : Main 10@L4@Main
    Codec ID : V_MPEGH/ISO/HEVC
    Duration : 1 h 49 min
    Bit rate : 1 418 kb/s
    Width : 1 920 pixels
    Height : 808 pixels
    Display aspect ratio : 2.40:1
    Frame rate mode : Constant
    Frame rate : 23.976 (24000/1001) FPS
    Color space : YUV
    Chroma subsampling : 4:2:0
    Bit depth : 10 bits
    Bits/(Pixel*Frame) : 0.038
    Stream size : 1.09 GiB (70%)
    Title : ELEKTRI4KA.UNIONGANG
    Default : Yes
    Forced : No
    Audio #1
    ID : 2
    Format : AC-3
    Format/Info : Audio Coding 3
    Commercial name : Dolby Digital
    Codec ID : A_AC3
    Duration : 1 h 49 min
    Bit rate mode : Constant
    Bit rate : 384 kb/s
    Channel(s) : 6 channels
    Channel layout : L R C LFE Ls Rs
    Sampling rate : 48.0 kHz
    Frame rate : 31.250 FPS (1536 SPF)
    Compression mode : Lossy
    Stream size : 301 MiB (19%)
    Title : (ELEKTRI4KA.UNIONGANG)
    Language : Russian
    Service kind : Complete Main
    Default : Yes
    Forced : Yes
    Audio #2
    ID : 3
    Format : AAC LC SBR
    Format/Info : Advanced Audio Codec Low Complexity with Spectral Band Replication
    Commercial name : HE-AAC
    Format settings : Explicit
    Codec ID : A_AAC-2
    Duration : 1 h 49 min
    Bit rate : 208 kb/s
    Channel(s) : 6 channels
    Channel layout : C L R Ls Rs LFE
    Sampling rate : 48.0 kHz
    Frame rate : 23.438 FPS (2048 SPF)
    Compression mode : Lossy
    Delay relative to video : 23 ms
    Stream size : 163 MiB (10%)
    Title : (ELEKTRI4KA.UNIONGANG)
    Language : English
    Default : No
    Forced : No
    Text
    ID : 4
    Format : UTF-8
    Codec ID : S_TEXT/UTF8
    Codec ID/Info : UTF-8 Plain Text
    Duration : 1 h 45 min
    Bit rate : 53 b/s
    Count of elements : 1474
    Stream size : 41.4 KiB (0%)
    Language : English
    Default : No
    Forced : No

    _________________
    Показать сообщения:    
    Главная  Кинофильмы  Кинофильмы (HEVC)  Фильмы 2011-2018 годов

    Текущее время: 20-Фев 23:18

    Часовой пояс: UTC + 5



    Вы не можете начинать темы
    Вы не можете отвечать на сообщения
    Вы не можете редактировать свои сообщения
    Вы не можете удалять свои сообщения
    Вы не можете голосовать в опросах
    Вы не можете прикреплять файлы к сообщениям
    Вы не можете скачивать файлы