Терминатор: Тёмные судьбы / Terminator: Dark Fate (Тим Миллер / Tim Miller) [2019, Фантастика, боевик, приключения, BDRip 2160p, HDR, HEVC 10bit] iTunes :: UZTOR.PW Лучший трекер в зоне TAS-IX!
Регистрация ·
Имя: Пароль:  
· Забыли пароль?
Уважаемые гости сайта! Добро Пожаловать на наш торрент трекер,где Вы можете бесплатно скачать любой Софт,Фильмы,Музыку и многое другое! А так же постоянно ведется набор модераторов и релизеров. Зарегистрируйтесь сейчас, чтобы получить доступ ко всем функциям. После регистрации или входа на сайт вы сможете создавать темы, отвечать на сообщения и скачивать файлы.

Навигация по Торрент раздачам и Форум и Стол заказов и Группы

 Терминатор: Тёмные судьбы / Terminator: Dark Fate (Тим Миллер / Tim Miller) [2019, Фантастика, боевик, приключения, BDRip 2160p, HDR, HEVC 10bit] iTunes

Главная  Кинофильмы  Кинофильмы (HEVC)  Фильмы 2011-2018 годов
Статистика раздачи
Нет
 
     
 
 
Автор Сообщение
  • NuRKHoNoFF ®
  • Не в сети
  • Автор темы

  • 5064
  • Пол: Мужской

  • Стаж: 1 год 2 месяца

  • Сообщений: 67

  •  Узбекистан

  • Откуда: Каттакурган

  • Провайдер: TPS TPS

  • Карма: 610


  • Наличие запрета:

  • Награды: 17 (Подробнее)
    Активный релизер 1 (Количество: 1) Активный релизер 2 (Количество: 1) Активный релизер 3 (Количество: 1) Активный релизер 4 (Количество: 1) Активный релизер 5 (Количество: 1)
  • Создавать темы 31-Янв-2020 03:46

    Терминатор: Тёмные судьбы / Terminator: Dark Fate -Год выпуска: 2019
    Страна: США, Китай
    Жанр: Фантастика, боевик, приключения
    Продолжительность: 02:08:05
    Перевод: Дублированный [iTunes]-Субтитры: Russian (Forced), English (SDH)-Режиссер: Тим Миллер / Tim Miller-В ролях: Арнольд Шварценеггер, Маккензи Дэвис, Линда Хэмилтон, Эдвард Ферлонг, Гэбриел Луна, Наталия Рейес, Том Хоппер, Диего Бонета, Алисия Боррачеро, Энрике Арсе, Стивен Кри, Ферран Фернандес-Описание: Мексика. Милая девушка Даниэла Рамос, а для друзей просто Дани, вместе с братом приходит с утра работать на завод, но там выясняется, что их вскоре заменят автоматикой. И это не единственная угроза, которую представляют для девушки машины: тут же на неё нападает присланная из будущего и практически неубиваемая модель терминатора REV-9. Но на защиту Дани встает Грэйс — тоже прибывшая из будущего женщина, модифицировавшая свои боевые характеристики до терминаторского уровня. Вскоре к ним на помощь придёт и Сара Коннор, которая теперь превратилась в настоящую охотницу на роботов-убийц.
    - -Качество: BDRip 2160p HDR HEVC 10bit
    Формат: MKV (x265)
    Видео: HEVC, 2790 Kb/s, 3840x1616
    Аудио №1: AC3, 6 ch, 384 Kb/s | RUS
    Аудио №2: AAC, 8 ch, 288 Kb/s | ENG-

    MediaInfo

    General
    Unique ID : 116912281803625401202459726897653392006 (0x57F47C8747EF0CF12EF0C01352DAA286)
    Complete name : Terminator.Dark.Fate.2019.2160p.10bit.HDR.BluRay.8CH.x265.HEVC.ELEKTRI4KA.UNIONGANG.mkv
    Format : Matroska
    Format version : Version 4
    File size : 3.10 GiB
    Duration : 2 h 8 min
    Overall bit rate : 3 464 kb/s
    Movie name : \Terminator.Dark.Fate.2019.2160p.10bit.HDR.BluRay.8CH.x265.HEVC.ELEKTRI4KA.UNIONGANG
    Encoded date : UTC 2020-01-30 21:32:52
    Writing application : mkvmerge v40.0.0 ('Old Town Road + Pony') 64-bit
    Writing library : libebml v1.3.9 + libmatroska v1.5.2
    Cover : Yes
    Attachments : small_cover.jpg / small_cover_land.jpg / cover.jpg / cover_land.jpg / cover.jpg
    Video
    ID : 1
    Format : HEVC
    Format/Info : High Efficiency Video Coding
    Format profile : Main 10@L5@Main
    HDR format : SMPTE ST 2086, HDR10 compatible
    Codec ID : V_MPEGH/ISO/HEVC
    Duration : 2 h 8 min
    Bit rate : 2 790 kb/s
    Width : 3 840 pixels
    Height : 1 616 pixels
    Display aspect ratio : 2.40:1
    Frame rate mode : Constant
    Frame rate : 23.976 (24000/1001) FPS
    Color space : YUV
    Chroma subsampling : 4:2:0
    Bit depth : 10 bits
    Bits/(Pixel*Frame) : 0.019
    Stream size : 2.50 GiB (81%)
    Title : ELEKTRI4KA.UNIONGANG
    Default : Yes
    Forced : No
    Color range : Limited
    Color primaries : BT.2020
    Transfer characteristics : PQ
    Matrix coefficients : BT.2020 non-constant
    Mastering display color pri : Display P3
    Mastering display luminance : min: 0.0001 cd/m2, max: 1000 cd/m2
    Maximum Content Light Level : 1000 cd/m2
    Maximum Frame-Average Light : 446 cd/m2
    Audio #1
    ID : 2
    Format : AC-3
    Format/Info : Audio Coding 3
    Commercial name : Dolby Digital
    Codec ID : A_AC3
    Duration : 2 h 8 min
    Bit rate mode : Constant
    Bit rate : 384 kb/s
    Channel(s) : 6 channels
    Channel layout : L R C LFE Ls Rs
    Sampling rate : 48.0 kHz
    Frame rate : 31.250 FPS (1536 SPF)
    Compression mode : Lossy
    Stream size : 352 MiB (11%)
    Title : (ELEKTRI4KA.UNIONGANG)
    Language : Russian
    Service kind : Complete Main
    Default : Yes
    Forced : No
    Audio #2
    ID : 3
    Format : AAC LC SBR
    Format/Info : Advanced Audio Codec Low Complexity with Spectral Band Replication
    Commercial name : HE-AAC
    Format settings : Explicit
    Codec ID : A_AAC-2
    Duration : 2 h 8 min
    Bit rate : 288 kb/s
    Channel(s) : 8 channels
    Channel layout : C L R Ls Rs Lb Rb LFE
    Sampling rate : 48.0 kHz
    Frame rate : 23.438 FPS (2048 SPF)
    Compression mode : Lossy
    Delay relative to video : 31 ms
    Stream size : 264 MiB (8%)
    Title : (ELEKTRI4KA.UNIONGANG)
    Language : English
    Default : No
    Forced : No
    Text #1
    ID : 4
    Format : UTF-8
    Codec ID : S_TEXT/UTF8
    Codec ID/Info : UTF-8 Plain Text
    Duration : 2 h 4 min
    Bit rate : 4 b/s
    Count of elements : 143
    Stream size : 4.36 KiB (0%)
    Title : (Forced)
    Language : Russian
    Default : No
    Forced : No
    Text #2
    ID : 5
    Format : UTF-8
    Codec ID : S_TEXT/UTF8
    Codec ID/Info : UTF-8 Plain Text
    Duration : 1 h 57 min
    Bit rate : 31 b/s
    Count of elements : 1078
    Stream size : 27.2 KiB (0%)
    Language : English
    Default : No
    Forced : No
    Text #3
    ID : 6
    Format : UTF-8
    Codec ID : S_TEXT/UTF8
    Codec ID/Info : UTF-8 Plain Text
    Duration : 1 h 57 min
    Bit rate : 39 b/s
    Count of elements : 1387
    Stream size : 34.3 KiB (0%)
    Title : SDH
    Language : English
    Default : No
    Forced : No

    _________________
    Показать сообщения:    
    Главная  Кинофильмы  Кинофильмы (HEVC)  Фильмы 2011-2018 годов

    Текущее время: 20-Фев 22:23

    Часовой пояс: UTC + 5



    Вы не можете начинать темы
    Вы не можете отвечать на сообщения
    Вы не можете редактировать свои сообщения
    Вы не можете удалять свои сообщения
    Вы не можете голосовать в опросах
    Вы не можете прикреплять файлы к сообщениям
    Вы не можете скачивать файлы