Темные воды / Dark Waters (Тодд Хейнс / Todd Haines) [2019, Триллер, драма, биография, история, BDScreener 720p] HEVC :: UZTOR.PW Лучший трекер в зоне TAS-IX!
Регистрация ·
Имя: Пароль:  
· Забыли пароль?
Уважаемые гости сайта! Добро Пожаловать на наш торрент трекер,где Вы можете бесплатно скачать любой Софт,Фильмы,Музыку и многое другое! А так же постоянно ведется набор модераторов и релизеров. Зарегистрируйтесь сейчас, чтобы получить доступ ко всем функциям. После регистрации или входа на сайт вы сможете создавать темы, отвечать на сообщения и скачивать файлы.

Навигация по Торрент раздачам и Форум и Стол заказов и Группы

 Темные воды / Dark Waters (Тодд Хейнс / Todd Haines) [2019, Триллер, драма, биография, история, BDScreener 720p] HEVC

Главная  Кинофильмы  Кинофильмы (HEVC)  Фильмы 2011-2018 годов
Статистика раздачи
Нет
 
     
 
 
Автор Сообщение
  • NuRKHoNoFF ®
  • Не в сети
  • Автор темы

  • 5064
  • Пол: Мужской

  • Стаж: 1 год 3 месяца

  • Сообщений: 84

  •  Узбекистан

  • Откуда: Каттакурган

  • Провайдер: TPS TPS

  • Карма: 610


  • Наличие запрета:

  • Награды: 17 (Подробнее)
    Активный релизер 1 (Количество: 1) Активный релизер 2 (Количество: 1) Активный релизер 3 (Количество: 1) Активный релизер 4 (Количество: 1) Активный релизер 5 (Количество: 1)
  • Создавать темы 24-Янв-2020 02:49

    Темные воды / Dark Waters -Год выпуска: 2019
    Страна: США
    Жанр: Триллер, драма, биография, история
    Продолжительность: 02:07:02
    Перевод: Профессиональный (многоголосый, закадровый) [HDRezka Studio]-Субтитры: English-Режиссер: Тодд Хейнс / Todd Haines-В ролях: Марк Руффало, Энн Хэтэуэй, Тим Роббинс, Уильям Джексон Харпер, Билл Пуллман, Мэр Уиннингхэм, Виктор Гарбер, Луиза Краузе, Билл Кэмп, Скарлет Хикс, Кевин Краули-Описание: Адвокат Роберт Билотт, работавший корпоративным юристом химического холдинга DuPont, выступает с обвинением в суде против своей бывшей компании, которая десятилетиями цинично травила людей, загрязняя химикатами питьевую воду. Он ведет это дело 19 лет. Сможет ли он пролить свет на правду?
    - -Качество: BDScreener 720p HEVC
    Формат: MKV
    Видео: HEVC, 742 Kb/s, 1280x536
    Аудио №1: AC3, 6 ch, 448 kb/s | RUS
    Аудио №2: AAC, 2 ch, 67 kb/s | ENG-

    MediaInfo

    General
    Unique ID : 303227225563197887615335623451117277484 (0xE41F707A53B91EF10DB0336D00BED12C)
    Complete name : Dark.Waters.2019.NuRKHoNoFF.720p.BDScr.2CH.x265.HEVC.ELEKTRI4KA.UNIONGANG.mkv
    Format : Matroska
    Format version : Version 4
    File size : 1.12 GiB
    Duration : 2 h 7 min
    Overall bit rate : 1 260 kb/s
    Movie name : Dark.Waters.2019.NuRKHoNoFF.720p.BDScr.2CH.x265.HEVC.ELEKTRI4KA.UNIONGANG
    Encoded date : UTC 2020-01-23 21:12:10
    Writing application : mkvmerge v40.0.0 ('Old Town Road + Pony') 64-bit
    Writing library : libebml v1.3.9 + libmatroska v1.5.2
    Video
    ID : 1
    Format : HEVC
    Format/Info : High Efficiency Video Coding
    Format profile : Main@L3.1@Main
    Codec ID : V_MPEGH/ISO/HEVC
    Duration : 2 h 7 min
    Bit rate : 742 kb/s
    Width : 1 280 pixels
    Height : 536 pixels
    Display aspect ratio : 2.40:1
    Frame rate mode : Constant
    Frame rate : 23.976 (24000/1001) FPS
    Color space : YUV
    Chroma subsampling : 4:2:0
    Bit depth : 8 bits
    Bits/(Pixel*Frame) : 0.045
    Stream size : 674 MiB (59%)
    Default : Yes
    Forced : No
    Audio #1
    ID : 2
    Format : AC-3
    Format/Info : Audio Coding 3
    Commercial name : Dolby Digital
    Codec ID : A_AC3
    Duration : 2 h 7 min
    Bit rate mode : Constant
    Bit rate : 448 kb/s
    Channel(s) : 6 channels
    Channel layout : L R C LFE Ls Rs
    Sampling rate : 48.0 kHz
    Frame rate : 31.250 FPS (1536 SPF)
    Compression mode : Lossy
    Stream size : 407 MiB (36%)
    Title : (ELEKTRI4KA.UNIONGANG)
    Language : Russian
    Service kind : Complete Main
    Default : Yes
    Forced : No
    Audio #2
    ID : 3
    Format : AAC LC SBR
    Format/Info : Advanced Audio Codec Low Complexity with Spectral Band Replication
    Commercial name : HE-AAC
    Format settings : Explicit
    Codec ID : A_AAC-2
    Duration : 2 h 7 min
    Bit rate : 67.7 kb/s
    Channel(s) : 2 channels
    Channel layout : L R
    Sampling rate : 48.0 kHz
    Frame rate : 23.438 FPS (2048 SPF)
    Compression mode : Lossy
    Delay relative to video : 23 ms
    Stream size : 61.5 MiB (5%)
    Title : (ELEKTRI4KA.UNIONGANG)
    Language : English
    Default : No
    Forced : No
    Text #1
    ID : 4
    Format : UTF-8
    Codec ID : S_TEXT/UTF8
    Codec ID/Info : UTF-8 Plain Text
    Duration : 1 h 59 min
    Bit rate : 67 b/s
    Count of elements : 1681
    Stream size : 58.9 KiB (0%)
    Title : Full
    Language : English
    Default : No
    Forced : No
    Text #2
    ID : 5
    Format : UTF-8
    Codec ID : S_TEXT/UTF8
    Codec ID/Info : UTF-8 Plain Text
    Duration : 2 h 1 min
    Bit rate : 70 b/s
    Count of elements : 1781
    Stream size : 62.7 KiB (0%)
    Title : Full - SDH
    Language : English
    Default : No
    Forced : No

    _________________
    Показать сообщения:    
    Главная  Кинофильмы  Кинофильмы (HEVC)  Фильмы 2011-2018 годов

    Текущее время: 06-Апр 16:40

    Часовой пояс: UTC + 5



    Вы не можете начинать темы
    Вы не можете отвечать на сообщения
    Вы не можете редактировать свои сообщения
    Вы не можете удалять свои сообщения
    Вы не можете голосовать в опросах
    Вы не можете прикреплять файлы к сообщениям
    Вы не можете скачивать файлы