Ванпанчмен / One-Punch Man [TV-1] [12 из 12] (Нацумэ Синго)[Rus.int][2015, экшен, фантастика, комедия, пародия, сверхъестественное, супер сила, BDRip 1080p] MVO (Kansai, Onibaku Group, AniLibria) :: UZTOR.PW Лучший трекер в зоне TAS-IX!
 
Уважаемые гости сайта! Добро Пожаловать на наш торрент трекер,где Вы можете бесплатно скачать любой Софт,Фильмы,Музыку и многое другое! А так же постоянно ведется набор модераторов и релизеров. Зарегистрируйтесь сейчас, чтобы получить доступ ко всем функциям. После регистрации или входа на сайт вы сможете создавать темы, отвечать на сообщения и скачивать файлы.

Навигация по Торрент раздачам и Форум и Стол заказов и Группы



 Ванпанчмен / One-Punch Man [TV-1] [12 из 12] (Нацумэ Синго)[Rus.int][2015, экшен, фантастика, комедия, пародия, сверхъестественное, супер сила, BDRip 1080p] MVO (Kansai, Onibaku Group, AniLibria)

Главная  Аниме  Сериалы  Аниме Сериалы (HD)
Статистика раздачи
Нет
 
     
 
 
 
Автор Сообщение
  • Создавать темы 08-Янв-2020 01:24

    Ванпанчмен / One-Punch Man--Год выхода: 2015
    Жанр: экшен, фантастика, комедия, пародия, сверхъестественное, супер сила
    Страна: Япония
    Студия: Madhouse Studios
    Продолжительность: (12 эп.), 25 мин.-ПереводЫ:
      Любительский многоголосый (Kansai)
      Любительский многоголосый (Absurd, Zendos, Eladiel)
      Любительский многоголосый (Aemi, Dejz, Reni)
      Любительский многоголосый (Snowly, Elrid, NesTea)
      Любительский многоголосый (Zodik & Kristabel & RedRain)
      Любительский многоголосый (Soer & MezIdA)
      Любительский одноголосый (Shachiburi)
      Любительский одноголосый (JAM)
      Любительский одноголосый (micola777)
    -Режиссер: Нацумэ Синго-В ролях: Хироки Ясумото (в аниме Кинг), Юйти Накамура (в аниме Райдер), Кацуюки Кониси (в аниме Мастер) и Хирому Миядзаки (в аниме Тайгер), Аой Юки (в аниме Тацумаки), Макото Фурукава (Сайтама), Кайто Исикава (в аниме Дженос) и Такахиро Сакурай (в аниме Зомбимен).-О фильме: Для человечества настали нелегкие времена: на матушку-Землю повадились, как к себе домой, разнообразные монстры родом из космоса, недр земли, научных лабораторий и бог знает откуда еще. Методично руша один город за другим, они несут смерть и разрушение, вселяя трепет в сердца сторонних наблюдателей. Но сторонним наблюдателям, кроме попадания под шальной удар очередного злодея, бояться нечего: на страже их покоя стоит наш главный герой, лысый молодой человек по фамилии Сайтама с выражением вселенской тоски на лице.
    Пусть его не особо героическая внешность вас не обманывает: Сайтама, хоть и лишенный волос, крутого костюма и необходимого для спасителя Вселенной запаса пафосных речей, невероятно силен. Три года назад он, потеряв работу и решив встать на путь героя, так переусердствовал с тренировками, что теперь побеждает любого монстра с одного удара. Но почему же тогда он так уныл и недоволен жизнью? Все очень просто: лучшие из героев впадают в уныние, когда у них нет сильного врага, а против Сайтамы ни один злодей и раунда не выстоит. Вот и не радуют его особо ни многочисленные победы, ни уважение новоявленного «ученика», ни общение с коллегами по профессии – остается лишь надеяться, что где-то впереди его все-таки ждут достойные противники.- -Качество: BDRip 1080p
    Формат: MKV
    Видео: MPEG-4 AVC/H264, (8 bit), 1920x1080, 4978 kbps, 23.976 fps,
    Аудио (Rus(int)): AC-3, 192 kbps, 48,0 KHz, 2 ch | [Kansai]
    Аудио (Rus(int)): AC-3, 192 kbps, 48,0 KHz, 2 ch | [Absurd, Zendos, Eladiel]
    Аудио (Rus(int)): AAC, 192 kbps, 48,0 KHz, 2 ch | [Aemi, Dejz, Reni]
    Аудио (Rus(int)): AAC, 192 kbps, 48,0 KHz, 2 ch | [Snowly, Elrid, NesTea]
    Аудио (Rus(int)): AC-3, 192 kbps, 48,0 KHz, 2 ch | [Zodik, Kristabel, RedRain]
    Аудио (Rus(int)): AC-3, 192 kbps, 48,0 KHz, 2 ch | [Soer, MezIdA]
    Аудио (Rus(int)): AC-3, 192 kbps, 48,0 KHz, 2 ch | [Shachiburi]
    Аудио (Rus(int)): AC-3, 192 kbps, 48,0 KHz, 2 ch | [JAM]
    Аудио (Rus(int)): AC-3, 192 kbps, 48,0 KHz, 2 ch | [micola777]
    Аудио (Japanese): AAC, 192 kbps, 48,0 Hz, 2 ch | [Original]
    Хардсаб: отсутствует-

    MediaInfo

    General
    Уникальный идентификатор : 190786463592923831858604042917640664712 (0x8F8822E5FB34A601BB3AB01BB897F688)
    Полное имя : D:\Films\ANIME\Ванпачмен-One Punch Man\1 Сезон\One-Punch Man [S01-FULL] BDRip 1080p\01.The Strongest Man.mkv
    Формат : Matroska
    Версия формата : Version 4
    Размер файла : 1.18 GiB
    Продолжительность : 24 min 22 s
    Общий поток : 6 917 kb/s
    Название фильма : [RH] One-Punch Man - 01 - The Strongest Man [Dual Audio] [BDRip] [1080p]
    Дата кодирования : UTC 2017-08-25 11:29:24
    Программа кодирования : mkvmerge v15.0.0 ('Duel with the Devil') 64-bit
    Библиотека кодирования : libebml v1.3.5 + libmatroska v1.4.5
    Attachments : 28 Days Later Cyr.otf / 28 Days Later Cyr.ttf / 7fonts.ru_28DaysLater.ttf / 9121879.ttf / Bankir-Retro_0.ttf / Graffiti1CTT_0.ttf / Graffiti2C Regular.ttf / KBL85_0.TTF / MetaPro-Bold.otf / NtnvPPlU.ttf / stylo_0.ttf / OpenSans-Semibold.ttf / Brush Strokes_0.ttf / DISTInkingFxd-Bold.otf / Fela.otf / Franchise-Bold-hinted.ttf / khmerui.ttf / PTS75F_0.ttf / PTS76F.ttf / SubClearSans-Bold.ttf
    Video
    Идентификатор : 14
    Формат : AVC
    Формат/Информация : Advanced Video Codec
    Профиль формата : High@L5
    Настройки формата : CABAC / 5 Ref Frames
    Параметр CABAC формата : Yes
    Параметр RefFrames формата : 5 frames
    Идентификатор кодека : V_MPEG4/ISO/AVC
    Продолжительность : 24 min 21 s
    Битрейт : 4 978 kb/s
    Ширина : 1 920 pixels
    Высота : 1 080 pixels
    Соотношение сторон : 16:9
    Режим частоты кадров : Constant
    Частота кадров : 23.976 (24000/1001) FPS
    Цветовое пространство : YUV
    Субдискретизация насыщенности : 4:2:0
    Битовая глубина : 8 bits
    Тип развёртки : Progressive
    Бит/(Пиксели*Кадры) : 0.100
    Размер потока : 867 MiB (72%)
    Заголовок : 1080p h.264
    Библиотека кодирования : x264 core 148 r2638 7599210
    Настройки программы : cabac=1 / ref=5 / deblock=1:1:1 / analyse=0x3:0x113 / me=umh / subme=9 / psy=1 / psy_rd=0.70:0.00 / mixed_ref=1 / me_range=32 / chroma_me=1 / trellis=0 / 8x8dct=1 / cqm=0 / deadzone=21,11 / fast_pskip=0 / chroma_qp_offset=-2 / threads=12 / lookahead_threads=1 / sliced_threads=0 / nr=0 / decimate=1 / interlaced=0 / bluray_compat=0 / constrained_intra=0 / bframes=3 / b_pyramid=2 / b_adapt=2 / b_bias=0 / direct=1 / weightb=1 / open_gop=0 / weightp=2 / keyint=240 / keyint_min=23 / scenecut=40 / intra_refresh=0 / rc_lookahead=40 / rc=crf / mbtree=1 / crf=16.0 / qcomp=0.60 / qpmin=0 / qpmax=69 / qpstep=4 / ip_ratio=1.40 / aq=1:1.00
    Язык : Japanese
    Default : Yes
    Forced : No
    Audio #1
    Идентификатор : 1
    Формат : AC-3
    Формат/Информация : Audio Coding 3
    Коммерческое название : Dolby Digital
    Идентификатор кодека : A_AC3
    Продолжительность : 24 min 20 s
    Вид битрейта : Constant
    Битрейт : 192 kb/s
    Каналы : 2 channels
    Channel layout : L R
    Частота : 48.0 kHz
    Частота кадров : 31.250 FPS (1536 SPF)
    Метод сжатия : Lossy
    Задержка видео : 23 ms
    Размер потока : 33.4 MiB (3%)
    Заголовок : Kansai
    Язык : Russian
    Service kind : Complete Main
    Default : Yes
    Forced : No
    Audio #2
    Идентификатор : 2
    Формат : AC-3
    Формат/Информация : Audio Coding 3
    Коммерческое название : Dolby Digital
    Идентификатор кодека : A_AC3
    Продолжительность : 24 min 20 s
    Вид битрейта : Constant
    Битрейт : 192 kb/s
    Каналы : 2 channels
    Channel layout : L R
    Частота : 48.0 kHz
    Частота кадров : 31.250 FPS (1536 SPF)
    Метод сжатия : Lossy
    Размер потока : 33.4 MiB (3%)
    Заголовок : Absurd & Zendos & Eladiel
    Язык : Russian
    Service kind : Complete Main
    Default : No
    Forced : No
    Audio #3
    Идентификатор : 3
    Формат : AAC LC
    Формат/Информация : Advanced Audio Codec Low Complexity
    Идентификатор кодека : A_AAC-2
    Продолжительность : 24 min 20 s
    Битрейт : 192 kb/s
    Каналы : 2 channels
    Channel layout : L R
    Частота : 48.0 kHz
    Частота кадров : 46.875 FPS (1024 SPF)
    Метод сжатия : Lossy
    Размер потока : 33.4 MiB (3%)
    Заголовок : Aemi, Dejz, Reni
    Язык : Russian
    Default : No
    Forced : No
    Audio #4
    Идентификатор : 4
    Формат : AAC LC
    Формат/Информация : Advanced Audio Codec Low Complexity
    Идентификатор кодека : A_AAC-2
    Продолжительность : 24 min 20 s
    Битрейт : 192 kb/s
    Каналы : 2 channels
    Channel layout : L R
    Частота : 48.0 kHz
    Частота кадров : 46.875 FPS (1024 SPF)
    Метод сжатия : Lossy
    Задержка видео : 12 ms
    Размер потока : 33.4 MiB (3%)
    Заголовок : Snowly, Elrid, NesTea
    Язык : Russian
    Default : No
    Forced : No
    Audio #5
    Идентификатор : 5
    Формат : AC-3
    Формат/Информация : Audio Coding 3
    Коммерческое название : Dolby Digital
    Идентификатор кодека : A_AC3
    Продолжительность : 24 min 20 s
    Вид битрейта : Constant
    Битрейт : 192 kb/s
    Каналы : 2 channels
    Channel layout : L R
    Частота : 48.0 kHz
    Частота кадров : 31.250 FPS (1536 SPF)
    Метод сжатия : Lossy
    Задержка видео : 23 ms
    Размер потока : 33.4 MiB (3%)
    Заголовок : Zodik, Kristabel, RedRain
    Язык : Russian
    Service kind : Complete Main
    Default : No
    Forced : No
    Audio #6
    Идентификатор : 6
    Формат : AC-3
    Формат/Информация : Audio Coding 3
    Коммерческое название : Dolby Digital
    Идентификатор кодека : A_AC3
    Продолжительность : 24 min 20 s
    Вид битрейта : Constant
    Битрейт : 192 kb/s
    Каналы : 2 channels
    Channel layout : L R
    Частота : 48.0 kHz
    Частота кадров : 31.250 FPS (1536 SPF)
    Метод сжатия : Lossy
    Задержка видео : 23 ms
    Размер потока : 33.4 MiB (3%)
    Заголовок : Soer, MezIdA
    Язык : Russian
    Service kind : Complete Main
    Default : No
    Forced : No
    Audio #7
    Идентификатор : 7
    Формат : AC-3
    Формат/Информация : Audio Coding 3
    Коммерческое название : Dolby Digital
    Идентификатор кодека : A_AC3
    Продолжительность : 24 min 20 s
    Вид битрейта : Constant
    Битрейт : 192 kb/s
    Каналы : 2 channels
    Channel layout : L R
    Частота : 48.0 kHz
    Частота кадров : 31.250 FPS (1536 SPF)
    Метод сжатия : Lossy
    Задержка видео : 23 ms
    Размер потока : 33.4 MiB (3%)
    Заголовок : Shachiburi
    Язык : Russian
    Service kind : Complete Main
    Default : No
    Forced : No
    Audio #8
    Идентификатор : 8
    Формат : AC-3
    Формат/Информация : Audio Coding 3
    Коммерческое название : Dolby Digital
    Идентификатор кодека : A_AC3
    Продолжительность : 24 min 20 s
    Вид битрейта : Constant
    Битрейт : 192 kb/s
    Каналы : 2 channels
    Channel layout : L R
    Частота : 48.0 kHz
    Частота кадров : 31.250 FPS (1536 SPF)
    Метод сжатия : Lossy
    Задержка видео : 23 ms
    Размер потока : 33.4 MiB (3%)
    Заголовок : JAM
    Язык : Russian
    Service kind : Complete Main
    Default : No
    Forced : No
    Audio #9
    Идентификатор : 9
    Формат : AC-3
    Формат/Информация : Audio Coding 3
    Коммерческое название : Dolby Digital
    Идентификатор кодека : A_AC3
    Продолжительность : 24 min 20 s
    Вид битрейта : Constant
    Битрейт : 192 kb/s
    Каналы : 2 channels
    Channel layout : L R
    Частота : 48.0 kHz
    Частота кадров : 31.250 FPS (1536 SPF)
    Метод сжатия : Lossy
    Задержка видео : 23 ms
    Размер потока : 33.4 MiB (3%)
    Заголовок : micola777
    Язык : Russian
    Service kind : Complete Main
    Default : No
    Forced : No
    Audio #10
    Идентификатор : 10
    Формат : AAC LC
    Формат/Информация : Advanced Audio Codec Low Complexity
    Идентификатор кодека : A_AAC-2
    Продолжительность : 24 min 20 s
    Битрейт : 192 kb/s
    Каналы : 2 channels
    Channel layout : L R
    Частота : 48.0 kHz
    Частота кадров : 46.875 FPS (1024 SPF)
    Метод сжатия : Lossy
    Задержка видео : 12 ms
    Размер потока : 33.0 MiB (3%)
    Заголовок : Original
    Язык : Japanese
    Default : No
    Forced : No
    Text #1
    Идентификатор : 11
    Формат : ASS
    Идентификатор кодека : S_TEXT/ASS
    Идентификатор кодека/Информация : Advanced Sub Station Alpha
    Продолжительность : 23 min 8 s
    Битрейт : 13 b/s
    Count of elements : 21
    Метод сжатия : Lossless
    Размер потока : 2.24 KiB (0%)
    Заголовок : Надписи
    Язык : Russian
    Default : Yes
    Forced : No
    Text #2
    Идентификатор : 12
    Формат : ASS
    Идентификатор кодека : S_TEXT/ASS
    Идентификатор кодека/Информация : Advanced Sub Station Alpha
    Продолжительность : 24 min 1 s
    Битрейт : 117 b/s
    Count of elements : 262
    Метод сжатия : Lossless
    Размер потока : 20.7 KiB (0%)
    Заголовок : Субтитры [Vaisiliok, Elvis]
    Язык : Russian
    Default : No
    Forced : No
    Text #3
    Идентификатор : 13
    Формат : ASS
    Идентификатор кодека : S_TEXT/ASS
    Идентификатор кодека/Информация : Advanced Sub Station Alpha
    Продолжительность : 23 min 26 s
    Битрейт : 148 b/s
    Count of elements : 339
    Метод сжатия : Lossless
    Размер потока : 25.5 KiB (0%)
    Заголовок : Субтитры [Anku, mutagenb]
    Язык : Russian
    Default : No
    Forced : No
    Menu
    00:00:00.000 : :Intro
    00:03:10.969 : :OP
    00:04:41.024 : :Part A
    00:14:39.785 : :Part B
    00:22:10.108 : :ED
    00:23:40.071 : :Outtro
    00:24:00.000 : :Next Episode

    _________________


    Последний раз редактировалось: -InVoKeR- (2020-08-17 14:28), всего редактировалось 1 раз
    Показать сообщения:    
    Главная  Аниме  Сериалы  Аниме Сериалы (HD)

    Текущее время: 01-Ноя 05:30

    Часовой пояс: UTC + 5



    Вы не можете начинать темы
    Вы не можете отвечать на сообщения
    Вы не можете редактировать свои сообщения
    Вы не можете удалять свои сообщения
    Вы не можете голосовать в опросах
    Вы не можете прикреплять файлы к сообщениям
    Вы не можете скачивать файлы