Ведьмак / The Witcher [Сезон-1 Полный] [Серии 1-8 из 8] (Алик Сахаров, Шарлотта Брандстром, Алекс Гарсиа Лопес) [2019, Фэнтези, боевик, драма, приключения, WEB-DL 1080p] MVO (LostFilm) :: UZTOR.PW Лучший трекер в зоне TAS-IX!
Регистрация ·
Имя: Пароль:  
· Забыли пароль?
Уважаемые гости сайта! Добро Пожаловать на наш торрент трекер,где Вы можете бесплатно скачать любой Софт,Фильмы,Музыку и многое другое! А так же постоянно ведется набор модераторов и релизеров. Зарегистрируйтесь сейчас, чтобы получить доступ ко всем функциям. После регистрации или входа на сайт вы сможете создавать темы, отвечать на сообщения и скачивать файлы.

Навигация по Торрент раздачам и Форум и Стол заказов и Группы

 Ведьмак / The Witcher [Сезон-1 Полный] [Серии 1-8 из 8] (Алик Сахаров, Шарлотта Брандстром, Алекс Гарсиа Лопес) [2019, Фэнтези, боевик, драма, приключения, WEB-DL 1080p] MVO (LostFilm)

Главная  Сериалы  Американские и Европейские сериалы
Статистика раздачи
Скачал: [ 1 ]
 
     
 
 
Автор Сообщение
  • -InVoKeR- ®
  • Не в сети
  • Автор темы

  • 5057
  • VIP пользователь

  • Пол: Мужской

  • Стаж: 1 год 3 месяца

  • Сообщений: 476

  •  Узбекистан

  • Откуда: из Криптона

  • Провайдер: UzOnline UzOnline

  • Тарифный план: Unlim 4 (Мир: 4 Мбит/с, Tas-ix: 100Мбит/с)

  • Steam: 76561198442747843

  • Telegram: i_Invoker

  • Карма: 1118


  • Наличие запрета:

  • Награды: 22 (Подробнее)
    Admin (Количество: 1) Авторитет (Количество: 1) Активный релизер 1 (Количество: 1) Активный релизер 2 (Количество: 1) Активный сидер 1 (Количество: 1)
  • Создавать темы 07-Янв-2020 14:54

    Ведьмак / The Witcher-«The Worst Monsters Are the Ones We Create»--
    Год выхода: 2019
    Жанр: Фэнтези, боевик, драма, приключения
    Страна: Польша, США
    Продолжительность: ~ 01:00:00
    Перевод: Профессиональный (многоголосый, закадровый) | LostFilm-Режиссер: Алик Сахаров, Шарлотта Брандстром, Алекс Гарсиа Лопес-В ролях: Генри Кавилл, Фрейя Аллан, Анна Шаффер, Джои Бэти, МайАнна Бёринг, Том Кэнтон, Аня Чалотра, Имон Фэррен, Бьерн Хлинур Харальдссон, Адам Леви, Джоди Мэй, Ларс Миккельсен, Мацей Мусял, Мими Дивени, Ройс Пирресон, Уилсон Раджу-Пухальте, Амит Шах, Махеш Джаду, Анна-Луиза Плауман-О фильме: Ведьмак Геральт, мутант и убийца чудовищ, изо всех сил старается найти свое место в мире, где люди часто оказываются намного хуже монстров.-Качество: WEB-DL 1080p
    Формат: MKV
    Видео: AVC, 6800 Kбит/с, 1920x1080
    Аудио Rus: AC3, 2 ch, 384 Кбит/с
    Аудио Eng: AC3, 2 ch, 384 Кбит/с--

    MI

    General
    Unique ID : 207760550283880631459400339229212761893 (0x9C4D39FC422E7D0F95526E50AF8D5F25)
    Complete name : F:\Restored\The.Witcher.S01.1080p.rus.LostFilm.TV\The.Witcher.S01E01.1080p.rus.LostFilm.TV.mkv
    Format : Matroska
    Format version : Version 4
    File size : 3.23 GiB
    Duration : 1 h 1 min
    Overall bit rate : 7 563 kb/s
    Encoded date : UTC 2019-12-22 19:17:35
    Writing application : mkvmerge v9.5.0 ('Quiet Fire') 64bit
    Writing library : libebml v1.3.4 + libmatroska v1.4.5
    Video
    ID : 1
    Format : AVC
    Format/Info : Advanced Video Codec
    Format profile : High@L4.1
    Format settings : CABAC / 4 Ref Frames
    Format settings, CABAC : Yes
    Format settings, Reference fra : 4 frames
    Codec ID : V_MPEG4/ISO/AVC
    Duration : 1 h 1 min
    Bit rate : 6 800 kb/s
    Width : 1 920 pixels
    Height : 1 080 pixels
    Display aspect ratio : 16:9
    Frame rate mode : Constant
    Frame rate : 24.000 FPS
    Color space : YUV
    Chroma subsampling : 4:2:0
    Bit depth : 8 bits
    Scan type : Progressive
    Bits/(Pixel*Frame) : 0.137
    Stream size : 2.91 GiB (90%)
    Writing library : x264 core 112 r1834 a51816a
    Encoding settings : cabac=1 / ref=4 / deblock=1:-3:-2 / analyse=0x3:0x113 / me=hex / subme=7 / psy=1 / psy_rd=1.00:0.00 / mixed_ref=1 / me_range=16 / chroma_me=1 / trellis=1 / 8x8dct=1 / cqm=0 / deadzone=21,11 / fast_pskip=1 / chroma_qp_offset=-2 / threads=6 / sliced_threads=0 / nr=0 / decimate=1 / interlaced=0 / constrained_intra=0 / bframes=5 / b_pyramid=2 / b_adapt=1 / b_bias=0 / direct=1 / weightb=1 / open_gop=0 / weightp=2 / keyint=250 / keyint_min=25 / scenecut=40 / intra_refresh=0 / rc_lookahead=40 / rc=2pass / mbtree=1 / bitrate=6800 / ratetol=1.0 / qcomp=0.60 / qpmin=0 / qpmax=51 / qpstep=4 / cplxblur=20.0 / qblur=0.5 / vbv_maxrate=10000 / vbv_bufsize=256000 / ip_ratio=1.40 / aq=1:1.00 / nal_hrd=none
    Default : Yes
    Forced : No
    Audio #1
    ID : 2
    Format : AC-3
    Format/Info : Audio Coding 3
    Commercial name : Dolby Digital
    Codec ID : A_AC3
    Duration : 1 h 1 min
    Bit rate mode : Constant
    Bit rate : 384 kb/s
    Channel(s) : 2 channels
    Channel layout : L R
    Sampling rate : 48.0 kHz
    Frame rate : 31.250 FPS (1536 SPF)
    Compression mode : Lossy
    Stream size : 168 MiB (5%)
    Service kind : Complete Main
    Default : Yes
    Forced : No
    Audio #2
    ID : 3
    Format : AC-3
    Format/Info : Audio Coding 3
    Commercial name : Dolby Digital
    Codec ID : A_AC3
    Duration : 1 h 1 min
    Bit rate mode : Constant
    Bit rate : 384 kb/s
    Channel(s) : 2 channels
    Channel layout : L R
    Sampling rate : 48.0 kHz
    Frame rate : 31.250 FPS (1536 SPF)
    Compression mode : Lossy
    Stream size : 168 MiB (5%)
    Service kind : Complete Main
    Default : No
    Forced : No

    _________________
    Показать сообщения:    
    Главная  Сериалы  Американские и Европейские сериалы

    Текущее время: 25-Фев 14:25

    Часовой пояс: UTC + 5



    Вы не можете начинать темы
    Вы не можете отвечать на сообщения
    Вы не можете редактировать свои сообщения
    Вы не можете удалять свои сообщения
    Вы не можете голосовать в опросах
    Вы не можете прикреплять файлы к сообщениям
    Вы не можете скачивать файлы