Гемини / Gemini Man (Энг Ли / Ang Lee) [2019, Фантастика, боевик, триллер, драма, BDRemux] :: UZTOR.PW Лучший трекер в зоне TAS-IX!
Регистрация ·
Имя: Пароль:  
· Забыли пароль?
Уважаемые гости сайта! Добро Пожаловать на наш торрент трекер,где Вы можете бесплатно скачать любой Софт,Фильмы,Музыку и многое другое! А так же постоянно ведется набор модераторов и релизеров. Зарегистрируйтесь сейчас, чтобы получить доступ ко всем функциям. После регистрации или входа на сайт вы сможете создавать темы, отвечать на сообщения и скачивать файлы.

Навигация по Торрент раздачам и Форум и Стол заказов и Группы

 Гемини / Gemini Man (Энг Ли / Ang Lee) [2019, Фантастика, боевик, триллер, драма, BDRemux]

Главная  Кинофильмы  Зарубежные кинофильмы  Blu-Ray & BDRemux
Статистика раздачи
Нет
 
     
 
 
Автор Сообщение
  • -InVoKeR- ®
  • Не в сети
  • Автор темы

  • 5057
  • VIP пользователь

  • Пол: Мужской

  • Стаж: 1 год 3 месяца

  • Сообщений: 476

  •  Узбекистан

  • Откуда: из Криптона

  • Провайдер: UzOnline UzOnline

  • Тарифный план: Unlim 4 (Мир: 4 Мбит/с, Tas-ix: 100Мбит/с)

  • Steam: 76561198442747843

  • Telegram: i_Invoker

  • Карма: 1118


  • Наличие запрета:

  • Награды: 22 (Подробнее)
    Admin (Количество: 1) Авторитет (Количество: 1) Активный релизер 1 (Количество: 1) Активный релизер 2 (Количество: 1) Активный сидер 1 (Количество: 1)
  • Создавать темы 07-Янв-2020 14:17

    Гемини / Gemini Man-- Год выхода: 2019
    Жанр: Фантастика, боевик, триллер, драма
    Страна: США, Китай
    Студия: Skydance Media, Jerry Bruckheimer Films, Fosun Group Forever Pictures
    Продолжительность: 01:57:03
    Перевод: Профессиональный (дублированный) iTunes
    Субтитры: Русские (Full), английские-Режиссер: Энг Ли-В ролях: Уилл Смит, Мэри Элизабет Уинстэд, Клайв Оуэн, Бенедикт Вонг, Дуглас Ходж, Теодора Вулли, Ральф Браун, Линда Эмонд, Андреа Суч, Илья Волох, Дэвид Моретти, Илона МакКри, Э.Дж. Бонилья, Виктор Хьюго-О фильме: Первоклассный киллер Генри Броган становится мишенью таинственного оперативника, который, кажется, знает наперёд каждый его шаг.-Качество: BDRemux
    Видео: MPEG-4 AVC, 1920x1080, 27.1 Mbit/s, 23.976 fps
    Аудио RUS: 48 kHz, AC3, 5.1, 384 Kbps / Дублированный, iTunes
    Аудио ENG: 48 kHz, TrueHD Atmos, 7.1, 4205 Kbps
    Аудио ENG: 48 kHz, AC3, 5.1, 640 Kbps--

    MediaInfo

    General
    Unique ID : 65902814283290497199649037349618868116 (0x31946B9BB6CCA7ADF242CA7C8B5A5F94)
    Complete name : E:Video111Gemini.Man.2019.BDREMUX.1080p.seleZen.mkv
    Format : Matroska
    Format version : Version 4
    File size : 26.5 GiB
    Duration : 1 h 57 min
    Overall bit rate mode : Variable
    Overall bit rate : 32.4 Mb/s
    Movie name : Gemini Man 2019 from селезень
    Encoded date : UTC 2020-01-02 09:14:33
    Writing application : mkvmerge v40.0.0 ('Old Town Road + Pony') 64-bit
    Writing library : libebml v1.3.9 + libmatroska v1.5.2
    Video
    ID : 1
    Format : AVC
    Format/Info : Advanced Video Codec
    Format profile : High@L4.1
    Format settings : CABAC / 4 Ref Frames
    Format settings, CABAC : Yes
    Format settings, Reference : 4 frames
    Codec ID : V_MPEG4/ISO/AVC
    Duration : 1 h 57 min
    Bit rate mode : Variable
    Bit rate : 27.1 Mb/s
    Maximum bit rate : 30.2 Mb/s
    Width : 1 920 pixels
    Height : 1 080 pixels
    Display aspect ratio : 16:9
    Frame rate mode : Constant
    Frame rate : 23.976 (24000/1001) FPS
    Color space : YUV
    Chroma subsampling : 4:2:0
    Bit depth : 8 bits
    Scan type : Progressive
    Bits/(Pixel*Frame) : 0.546
    Stream size : 22.2 GiB (84%)
    Language : English
    Default : Yes
    Forced : No
    Audio #1
    ID : 2
    Format : AC-3
    Format/Info : Audio Coding 3
    Commercial name : Dolby Digital
    Codec ID : A_AC3
    Duration : 1 h 57 min
    Bit rate mode : Constant
    Bit rate : 384 kb/s
    Channel(s) : 6 channels
    Channel layout : L R C LFE Ls Rs
    Sampling rate : 48.0 kHz
    Frame rate : 31.250 FPS (1536 SPF)
    Compression mode : Lossy
    Stream size : 321 MiB (1%)
    Title : iTunes
    Language : Russian
    Service kind : Complete Main
    Default : Yes
    Forced : Yes
    Audio #2
    ID : 3
    Format : MLP FBA 16-ch
    Format/Info : Meridian Lossless Packing FBA with 16-channel presentation
    Commercial name : Dolby TrueHD with Dolby Atmos
    Codec ID : A_TRUEHD
    Duration : 1 h 57 min
    Bit rate mode : Variable
    Bit rate : 4 205 kb/s
    Maximum bit rate : 7 944 kb/s
    Channel(s) : 8 channels
    Channel layout : L R C LFE Ls Rs Lb Rb
    Sampling rate : 48.0 kHz
    Frame rate : 1 200.000 FPS (40 SPF)
    Compression mode : Lossless
    Stream size : 3.44 GiB (13%)
    Title : Original
    Language : English
    Default : No
    Forced : No
    Number of dynamic objects : 11
    Bed channel count : 1 channel
    Bed channel configuration : LFE
    Audio #3
    ID : 4
    Format : AC-3
    Format/Info : Audio Coding 3
    Commercial name : Dolby Digital
    Codec ID : A_AC3
    Duration : 1 h 57 min
    Bit rate mode : Constant
    Bit rate : 640 kb/s
    Channel(s) : 6 channels
    Channel layout : L R C LFE Ls Rs
    Sampling rate : 48.0 kHz
    Frame rate : 31.250 FPS (1536 SPF)
    Compression mode : Lossy
    Stream size : 536 MiB (2%)
    Language : English
    Service kind : Complete Main
    Default : No
    Forced : No
    Text #1
    ID : 5
    Format : UTF-8
    Codec ID : S_TEXT/UTF8
    Codec ID/Info : UTF-8 Plain Text
    Duration : 1 h 55 min
    Bit rate : 69 b/s
    Count of elements : 1336
    Stream size : 59.1 KiB (0%)
    Title : Full
    Language : Russian
    Default : No
    Forced : No
    Text #2
    ID : 6
    Format : UTF-8
    Codec ID : S_TEXT/UTF8
    Codec ID/Info : UTF-8 Plain Text
    Duration : 1 h 45 min
    Bit rate : 49 b/s
    Count of elements : 1356
    Stream size : 38.5 KiB (0%)
    Title : Full
    Language : English
    Default : No
    Forced : No
    Menu
    00:00:00.000 : en:Глава 01
    00:07:21.650 : en:Глава 02
    00:15:31.681 : en:Глава 03
    00:18:13.134 : en:Глава 04
    00:24:39.520 : en:Глава 05
    00:30:59.441 : en:Глава 06
    00:34:09.464 : en:Глава 07
    00:42:40.308 : en:Глава 08
    00:50:24.897 : en:Глава 09
    00:56:45.819 : en:Глава 10
    01:03:30.306 : en:Глава 11
    01:08:13.172 : en:Глава 12
    01:16:45.935 : en:Глава 13
    01:24:43.996 : en:Глава 14
    01:30:04.733 : en:Глава 15
    01:34:00.927 : en:Глава 16
    01:42:14.462 : en:Глава 17
    01:47:07.588 : en:Глава 18

    _________________
    Показать сообщения:    
    Главная  Кинофильмы  Зарубежные кинофильмы  Blu-Ray & BDRemux

    Текущее время: 20-Фев 22:11

    Часовой пояс: UTC + 5



    Вы не можете начинать темы
    Вы не можете отвечать на сообщения
    Вы не можете редактировать свои сообщения
    Вы не можете удалять свои сообщения
    Вы не можете голосовать в опросах
    Вы не можете прикреплять файлы к сообщениям
    Вы не можете скачивать файлы