Гемини / Gemini Man (Энг Ли / Ang Lee) [2019, Фантастика, боевик, триллер, драма, 4K UHD BDRemux 2160p] [HEVC/ HDR/ 60 FPS] :: UZTOR.PW Лучший трекер в зоне TAS-IX!
 
Уважаемые гости сайта! Добро Пожаловать на наш торрент трекер,где Вы можете бесплатно скачать любой Софт,Фильмы,Музыку и многое другое! А так же постоянно ведется набор модераторов и релизеров. Зарегистрируйтесь сейчас, чтобы получить доступ ко всем функциям. После регистрации или входа на сайт вы сможете создавать темы, отвечать на сообщения и скачивать файлы.

Навигация по Торрент раздачам и Форум и Стол заказов и Группы



 Гемини / Gemini Man (Энг Ли / Ang Lee) [2019, Фантастика, боевик, триллер, драма, 4K UHD BDRemux 2160p] [HEVC/ HDR/ 60 FPS]

Главная  Кинофильмы  Кинофильмы (HEVC)  UHD Blu-Ray & BDRemux
Статистика раздачи
Нет
 
     
 
 
Автор Сообщение
  • -InVoKeR- ®
  • Не в сети
  • Автор темы

  • 5057
  • VIP пользователь

  • Пол: Мужской

  • Стаж: 1 год 7 месяцев

  • Сообщений: 575

  •  Узбекистан

  • Откуда: из Криптона

  • Провайдер: UzOnline UzOnline

  • Тарифный план: Unlim 10 Premium (Мир: 300 Мбит/с, Tas-ix: 300Мбит/с)

  • Steam: 76561198442747843

  • Telegram: i_Invoker

  • Карма: 1130


  • Наличие запрета:

  • Награды: 22 (Подробнее)
    Admin (Количество: 1) Авторитет (Количество: 1) Активный релизер 1 (Количество: 1) Активный релизер 2 (Количество: 1) Активный сидер 1 (Количество: 1)
  • Создавать темы 07-Янв-2020 14:08

    Гемини / Gemini Man-- Год выхода: 2019
    Жанр: Фантастика, боевик, триллер, драма
    Страна: США, Китай
    Студия: Skydance Media, Jerry Bruckheimer Films, Fosun Group Forever Pictures
    Продолжительность: 01:57:03
    Перевод: Профессиональный (дублированный) iTunes
    Субтитры: Русские (Full), английские (full)-Режиссер: Энг Ли-В ролях: Уилл Смит, Мэри Элизабет Уинстэд, Клайв Оуэн, Бенедикт Вонг, Дуглас Ходж, Теодора Вулли, Ральф Браун, Линда Эмонд, Андреа Суч, Илья Волох, Дэвид Моретти, Илона МакКри, Э.Дж. Бонилья, Виктор Хьюго-О фильме: Первоклассный киллер Генри Броган становится мишенью таинственного оперативника, который, кажется, знает наперёд каждый его шаг.-Качество: 4K UHD BDRemux 2160p 60FPS
    Видео: MPEG-H HEVC HDR, 81.0 Mбит/с, 3840x2076, 59.940 кадр/с
    Аудио RUS: 48 kHz, AC3, 5.1, 384 Kbps / Дублированный, iTunes
    Аудио ENG: 48 kHz, TrueHD Atmos, 7.1, 4204 Kbps
    Аудио ENG: 48 kHz, AC3, 5.1, 640 Kbps--

    MediaInfo

    General
    Unique ID : 331969964267298391380758627376984153445 (0xF9BF16E84A1697A9CF47403E5AD6DD65)
    Complete name : C:KINOGemini.Man.2019.2160p.HDR.BDRemux.mkv
    Format : Matroska
    Format version : Version 4
    File size : 70.5 GiB
    Duration : 1 h 57 min
    Overall bit rate mode : Variable
    Overall bit rate : 86.3 Mb/s
    Movie name : Gemini Man 4K
    Encoded date : UTC 2020-01-03 18:17:06
    Writing application : mkvmerge v38.0.0 ('The Silent Type') 64-bit
    Writing library : libebml v1.3.9 + libmatroska v1.5.2
    Cover : Yes
    Attachments : cover.png
    Video
    ID : 1
    Format : HEVC
    Format/Info : High Efficiency Video Coding
    Format profile : Main 10@L5.1@High
    HDR format : SMPTE ST 2086, HDR10 compatible
    Codec ID : V_MPEGH/ISO/HEVC
    Duration : 1 h 57 min
    Bit rate : 81.0 Mb/s
    Width : 3 840 pixels
    Height : 2 160 pixels
    Display aspect ratio : 16:9
    Frame rate mode : Constant
    Frame rate : 59.940 (60000/1001) FPS
    Color space : YUV
    Chroma subsampling : 4:2:0 (Type 2)
    Bit depth : 10 bits
    Bits/(Pixel*Frame) : 0.163
    Stream size : 66.2 GiB (94%)
    Default : Yes
    Forced : No
    Color range : Limited
    Color primaries : BT.2020
    Transfer characteristics : PQ
    Matrix coefficients : BT.2020 non-constant
    Mastering display color primaries : Display P3
    Mastering display luminance : min: 0.0010 cd/m2, max: 1000 cd/m2
    Maximum Content Light Level : 5180 cd/m2
    Maximum Frame-Average Light Level : 1577 cd/m2
    Audio #1
    ID : 2
    Format : AC-3
    Format/Info : Audio Coding 3
    Commercial name : Dolby Digital
    Codec ID : A_AC3
    Duration : 1 h 57 min
    Bit rate mode : Constant
    Bit rate : 384 kb/s
    Channel(s) : 6 channels
    Channel layout : L R C LFE Ls Rs
    Sampling rate : 48.0 kHz
    Frame rate : 31.250 FPS (1536 SPF)
    Compression mode : Lossy
    Stream size : 321 MiB (0%)
    Title : Дублированный | iTunes
    Language : Russian
    Service kind : Complete Main
    Default : Yes
    Forced : No
    Audio #2
    ID : 3
    Format : MLP FBA 16-ch
    Format/Info : Meridian Lossless Packing FBA with 16-channel presentation
    Commercial name : Dolby TrueHD with Dolby Atmos
    Codec ID : A_TRUEHD
    Duration : 1 h 57 min
    Bit rate mode : Variable
    Bit rate : 4 204 kb/s
    Maximum bit rate : 7 944 kb/s
    Channel(s) : 8 channels
    Channel layout : L R C LFE Ls Rs Lb Rb
    Sampling rate : 48.0 kHz
    Frame rate : 1 200.000 FPS (40 SPF)
    Compression mode : Lossless
    Stream size : 3.44 GiB (5%)
    Language : English
    Default : No
    Forced : No
    Number of dynamic objects : 11
    Bed channel count : 1 channel
    Bed channel configuration : LFE
    Audio #3
    ID : 4
    Format : AC-3
    Format/Info : Audio Coding 3
    Commercial name : Dolby Digital
    Codec ID : A_AC3
    Duration : 1 h 57 min
    Bit rate mode : Constant
    Bit rate : 640 kb/s
    Channel(s) : 6 channels
    Channel layout : L R C LFE Ls Rs
    Sampling rate : 48.0 kHz
    Frame rate : 31.250 FPS (1536 SPF)
    Compression mode : Lossy
    Stream size : 536 MiB (1%)
    Language : English
    Service kind : Complete Main
    Default : No
    Forced : No
    Text #1
    ID : 5
    Format : UTF-8
    Codec ID : S_TEXT/UTF8
    Codec ID/Info : UTF-8 Plain Text
    Duration : 1 h 55 min
    Bit rate : 69 b/s
    Count of elements : 1336
    Stream size : 59.1 KiB (0%)
    Title : Full
    Language : Russian
    Default : Yes
    Forced : No
    Text #2
    ID : 6
    Format : UTF-8
    Codec ID : S_TEXT/UTF8
    Codec ID/Info : UTF-8 Plain Text
    Duration : 1 h 45 min
    Bit rate : 49 b/s
    Count of elements : 1356
    Stream size : 38.5 KiB (0%)
    Title : Full
    Language : English
    Default : No
    Forced : No
    Menu
    00:00:00.000 : en:Chapter 01
    00:07:21.641 : en:Chapter 02
    00:15:31.681 : en:Chapter 03
    00:18:13.109 : en:Chapter 04
    00:24:39.495 : en:Chapter 05
    00:30:59.408 : en:Chapter 06
    00:34:09.431 : en:Chapter 07
    00:42:40.308 : en:Chapter 08
    00:50:24.872 : en:Chapter 09
    00:56:45.819 : en:Chapter 10
    01:03:30.306 : en:Chapter 11
    01:08:13.172 : en:Chapter 12
    01:16:45.901 : en:Chapter 13
    01:24:43.979 : en:Chapter 14
    01:30:04.716 : en:Chapter 15
    01:34:00.919 : en:Chapter 16
    01:42:14.462 : en:Chapter 17
    01:47:07.588 : en:Chapter 18

    _________________
    Показать сообщения:    
    Главная  Кинофильмы  Кинофильмы (HEVC)  UHD Blu-Ray & BDRemux

    Текущее время: 10-Июл 05:41

    Часовой пояс: UTC + 5



    Вы не можете начинать темы
    Вы не можете отвечать на сообщения
    Вы не можете редактировать свои сообщения
    Вы не можете удалять свои сообщения
    Вы не можете голосовать в опросах
    Вы не можете прикреплять файлы к сообщениям
    Вы не можете скачивать файлы