Форсаж: Хоббс и Шоу / Fast & Furious Presents: Hobbs & Shaw (Дэвид Литч / David Litch) [2019, Приключения, боевик, BDRip 1080p 3D-Video] | Лицензия :: UZTOR.PW Лучший трекер в зоне TAS-IX!
Регистрация ·
Имя: Пароль:  
· Забыли пароль?
Уважаемые гости сайта! Добро Пожаловать на наш торрент трекер,где Вы можете бесплатно скачать любой Софт,Фильмы,Музыку и многое другое! А так же постоянно ведется набор модераторов и релизеров. Зарегистрируйтесь сейчас, чтобы получить доступ ко всем функциям. После регистрации или входа на сайт вы сможете создавать темы, отвечать на сообщения и скачивать файлы.

Навигация по Торрент раздачам и Форум и Стол заказов и Группы

 Форсаж: Хоббс и Шоу / Fast & Furious Presents: Hobbs & Shaw (Дэвид Литч / David Litch) [2019, Приключения, боевик, BDRip 1080p 3D-Video] | Лицензия

Главная  Кинофильмы  Зарубежные кинофильмы  3D
Статистика раздачи
Нет
 
     
 
 
Автор Сообщение
  • ROYCE ®
  • Не в сети
  • Автор темы

  • 5980
  • Пол: Мужской

  • Стаж: 1 месяц 19 дней

  • Сообщений: 3

  • Не указан Не указан

  • Провайдер: UzOnline UzOnline

  • Карма: 20


  • Наличие запрета:

  • Награды: Нет
  • Создавать темы 06-Янв-2020 09:24

    Форсаж: Хоббс и Шоу / Fast & Furious Presents: Hobbs & Shaw Год выпуска: 2019
    Страна: США
    Жанр: Приключения, боевик
    Продолжительность: 02:16:42
    Перевод: Дублированный | Лицензия
    Порядок ракурсов: левый ракурс первый-Режиссер: Дэвид Литч / David Litch-В ролях: Дуэйн Джонсон, Джейсон Стэйтем, Ванесса Кирби, Идрис Эльба, Эдди Марсан, Хелен Миррен, Райан Рейнольдс, Эйса Гонсалес, Клифф Кёртис, Элиана Суа-Описание: Генетически прокачанный суперсолдат Брикстон вместе со своей армией наемников охотятся на Декарда Шоу, который много лет служил на британскую разведку, и его сестру - сотрудницу МИ-6. Девушка выкрала у Брикстона пробирку со смертельным вирусом, способным уничтожить половину человечества. Теперь этот сверх человек хочет вернуть его. Вместе с братом и сестрой Шоу на пути Брикстона стоит и давний враг Декарда - Люк Хоббс. Несмотря на обоюдную неприязнь они вынуждены работать в одной команде, чтобы противостоять общему врагу...-Качество: BDRip 1080p 3D-Video
    Формат: MKV-Видео: MPEG-4 AVC, 12000 Kбит/с, 1920x1080
    Аудио #1: (AC3, 6 ch, 640 Кбит/с) Русский
    Аудио #2: (АС3, 6 ch, 448 Кбит/с) английский
    Аудио #3: (АС3, 2 ch, 192 Кбит/с) украинский-

    MediaInfo

    General
    Unique ID : 194269815577944033645741109316690062171 (0x922701692ED776BF80B60212029F2B5B)
    Complete name : D:Fast&FuriousPresents.Hobbs&Shaw(2019)3D-hOU(Ash61)LicFast&FuriousPresents.Hobbs&Shaw(2019)3D-hOU(Ash61)Lic.mkv
    Format : Matroska
    Format version : Version 2
    File size : 12.7 GiB
    Duration : 2 h 15 min
    Overall bit rate : 13.3 Mb/s
    Movie name : Форсаж: Хоббс и Шоу / Fast & Furious Presents: Hobbs & Shaw (2019) in 3D
    Encoded date : UTC 2019-11-23 12:42:58
    Writing application : mkvmerge v5.8.0 ('No Sleep / Pillow') built on Sep 2 2012 15:37:04
    Writing library : libebml v1.2.3 + libmatroska v1.3.0
    Video
    ID : 1
    Format : AVC
    Format/Info : Advanced Video Codec
    Format profile : High@L4.1
    Format settings : CABAC / 4 Ref Frames
    Format settings, CABAC : Yes
    Format settings, Reference : 4 frames
    Codec ID : V_MPEG4/ISO/AVC
    Duration : 2 h 15 min
    Bit rate : 12.0 Mb/s
    Width : 1 920 pixels
    Height : 1 080 pixels
    Display aspect ratio : 16:9
    Frame rate mode : Constant
    Frame rate : 23.976 (24000/1001) FPS
    Color space : YUV
    Chroma subsampling : 4:2:0
    Bit depth : 8 bits
    Scan type : Progressive
    Bits/(Pixel*Frame) : 0.241
    Stream size : 11.2 GiB (88%)
    Title : BDRip by Ash61
    Writing library : x264 core 146 r2538 121396c
    Encoding settings : cabac=1 / ref=4 / deblock=1:-3:-3 / analyse=0x3:0x113 / me=umh / subme=10 / psy=1 / psy_rd=1.00:0.00 / mixed_ref=1 / me_range=32 / chroma_me=1 / trellis=2 / 8x8dct=1 / cqm=0 / deadzone=21,11 / fast_pskip=0 / chroma_qp_offset=-2 / threads=12 / lookahead_threads=3 / sliced_threads=0 / nr=0 / decimate=0 / interlaced=0 / bluray_compat=0 / constrained_intra=0 / bframes=10 / b_pyramid=2 / b_adapt=2 / b_bias=0 / direct=3 / weightb=1 / open_gop=0 / weightp=2 / keyint=250 / keyint_min=23 / scenecut=40 / intra_refresh=0 / rc_lookahead=60 / rc=2pass / mbtree=0 / bitrate=12000 / ratetol=1.0 / qcomp=0.70 / qpmin=0 / qpmax=69 / qpstep=4 / cplxblur=20.0 / qblur=0.5 / vbv_maxrate=40000 / vbv_bufsize=30000 / nal_hrd=none / filler=0 / frame-packing=4 / ip_ratio=1.40 / pb_ratio=1.30 / aq=1:0.70
    Language : English
    Default : Yes
    Forced : No
    Audio #1
    ID : 2
    Format : AC-3
    Format/Info : Audio Coding 3
    Commercial name : Dolby Digital
    Codec ID : A_AC3
    Duration : 2 h 15 min
    Bit rate mode : Constant
    Bit rate : 640 kb/s
    Channel(s) : 6 channels
    Channel layout : L R C LFE Ls Rs
    Sampling rate : 48.0 kHz
    Frame rate : 31.250 FPS (1536 SPF)
    Compression mode : Lossy
    Stream size : 622 MiB (5%)
    Title : Дубляж [BD UHD Eur] (адаптирован под BD 3D - Ash61)
    Language : Russian
    Service kind : Complete Main
    Default : Yes
    Forced : No
    Audio #2
    ID : 3
    Format : AC-3
    Format/Info : Audio Coding 3
    Commercial name : Dolby Digital
    Codec ID : A_AC3
    Duration : 2 h 15 min
    Bit rate mode : Constant
    Bit rate : 192 kb/s
    Channel(s) : 2 channels
    Channel layout : L R
    Sampling rate : 48.0 kHz
    Frame rate : 31.250 FPS (1536 SPF)
    Compression mode : Lossy
    Stream size : 187 MiB (1%)
    Title : Дубляж (адаптирован под BD 3D)
    Language : Ukrainian
    Service kind : Complete Main
    Default : No
    Forced : No
    Audio #3
    ID : 4
    Format : AC-3
    Format/Info : Audio Coding 3
    Commercial name : Dolby Digital
    Codec ID : A_AC3
    Duration : 2 h 15 min
    Bit rate mode : Constant
    Bit rate : 448 kb/s
    Channel(s) : 6 channels
    Channel layout : L R C LFE Ls Rs
    Sampling rate : 48.0 kHz
    Frame rate : 31.250 FPS (1536 SPF)
    Compression mode : Lossy
    Stream size : 436 MiB (3%)
    Title : Original
    Language : English
    Service kind : Complete Main
    Default : No
    Forced : No
    Text #1
    ID : 5
    Format : UTF-8
    Codec ID : S_TEXT/UTF8
    Codec ID/Info : UTF-8 Plain Text
    Title : Форсированные (ver. Ash61)
    Language : Russian
    Default : Yes
    Forced : No
    Text #2
    ID : 6
    Format : UTF-8
    Codec ID : S_TEXT/UTF8
    Codec ID/Info : UTF-8 Plain Text
    Title : Полные [BD UHD Eur] (адаптированы под BD 3D - Ash61)
    Language : Russian
    Default : No
    Forced : No
    Text #3
    ID : 7
    Format : UTF-8
    Codec ID : S_TEXT/UTF8
    Codec ID/Info : UTF-8 Plain Text
    Title : Форсированные (ver. Ash61)
    Language : Ukrainian
    Default : No
    Forced : No
    Text #4
    ID : 8
    Format : UTF-8
    Codec ID : S_TEXT/UTF8
    Codec ID/Info : UTF-8 Plain Text
    Title : Full (adapted for BD 3D)
    Language : English
    Default : No
    Forced : No
    Text #5
    ID : 9
    Format : UTF-8
    Codec ID : S_TEXT/UTF8
    Codec ID/Info : UTF-8 Plain Text
    Title : SDH (adapted for BD 3D)
    Language : English
    Default : No
    Forced : No
    Menu
    00:00:00.000 : :1
    00:04:58.130 : :2
    00:13:43.489 : :3
    00:19:21.451 : :4
    00:26:45.979 : :5
    00:35:41.514 : :6
    00:40:13.244 : :7
    00:46:22.028 : :8
    00:51:34.215 : :9
    00:57:51.800 : :10
    01:01:53.251 : :11
    01:08:45.162 : :12
    01:14:22.832 : :13
    01:19:48.073 : :14
    01:24:59.260 : :15
    01:32:58.197 : :16
    01:38:48.921 : :17
    01:46:32.969 : :18
    01:53:29.594 : :19
    02:01:14.809 : :20


    • -InVoKeR-
    • Не в сети
    • 5057
    • VIP пользователь

    • Пол: Мужской

    • Стаж: 1 год 3 месяца

    • Сообщений: 476

    •  Узбекистан

    • Откуда: из Криптона

    • Провайдер: UzOnline UzOnline

    • Тарифный план: Unlim 4 (Мир: 4 Мбит/с, Tas-ix: 100Мбит/с)

    • Steam: 76561198442747843

    • Telegram: i_Invoker

    • Карма: 1118


    • Наличие запрета:

    • Награды: 22 (Подробнее)
      Admin (Количество: 1) Авторитет (Количество: 1) Активный релизер 1 (Количество: 1) Активный релизер 2 (Количество: 1) Активный сидер 1 (Количество: 1)
  • Создавать темы 06-Янв-2020 11:33 (спустя 2 часа 9 минут)

    ROYCE, спасибо за релиз, добавьте MediaInfo

    Информация от -InVoKeR-


    Дополнил MI

    _________________
    Показать сообщения:    
    Главная  Кинофильмы  Зарубежные кинофильмы  3D

    Текущее время: 25-Фев 14:46

    Часовой пояс: UTC + 5



    Вы не можете начинать темы
    Вы не можете отвечать на сообщения
    Вы не можете редактировать свои сообщения
    Вы не можете удалять свои сообщения
    Вы не можете голосовать в опросах
    Вы не можете прикреплять файлы к сообщениям
    Вы не можете скачивать файлы