Дождливый день в Нью-Йорке / A Rainy Day in New York (Вуди Аллен / Woody Allen) [2019, мелодрама, комедия, BDRip 720p] iTunes :: UZTOR.PW Лучший трекер в зоне TAS-IX!
Регистрация ·
Имя: Пароль:  
· Забыли пароль?
Уважаемые гости сайта! Добро Пожаловать на наш торрент трекер,где Вы можете бесплатно скачать любой Софт,Фильмы,Музыку и многое другое! А так же постоянно ведется набор модераторов и релизеров. Зарегистрируйтесь сейчас, чтобы получить доступ ко всем функциям. После регистрации или входа на сайт вы сможете создавать темы, отвечать на сообщения и скачивать файлы.

Навигация по Торрент раздачам и Форум и Стол заказов и Группы

 Дождливый день в Нью-Йорке / A Rainy Day in New York (Вуди Аллен / Woody Allen) [2019, мелодрама, комедия, BDRip 720p] iTunes

Главная  Кинофильмы  Зарубежные кинофильмы  HD
Статистика раздачи
Нет
 
     
 
 
Автор Сообщение
  • -InVoKeR- ®
  • Не в сети
  • Автор темы

  • 5057
  • VIP пользователь

  • Пол: Мужской

  • Стаж: 1 год 3 месяца

  • Сообщений: 476

  •  Узбекистан

  • Откуда: из Криптона

  • Провайдер: UzOnline UzOnline

  • Тарифный план: Unlim 4 (Мир: 4 Мбит/с, Tas-ix: 100Мбит/с)

  • Steam: 76561198442747843

  • Telegram: i_Invoker

  • Карма: 1118


  • Наличие запрета:

  • Награды: 22 (Подробнее)
    Admin (Количество: 1) Авторитет (Количество: 1) Активный релизер 1 (Количество: 1) Активный релизер 2 (Количество: 1) Активный сидер 1 (Количество: 1)
  • Создавать темы 02-Янв-2020 11:53

    Дождливый день в Нью-Йорке / A Rainy Day in New York-- Год выпуска: 2019
    Страна: США
    Жанр: мелодрама, комедия
    Продолжительность: 01:32:23
    Перевод: Дублированный iTunes-Режиссер: Вуди Аллен / Woody Allen-В ролях: Тимоти Шаламе, Элль Фэннинг, Селена Гомес, Джуд Лоу, Диего Луна, Лив Шрайбер, Аннали Эшфорд, Келли Рорбах, Ребекка Холл, Сьюки Уотерхаус-Описание: Он - из состоятельной семьи Нью-Йорка, она - из небольшого городка в Аризоне. Выросший на Манхэттене юноша мечтает показать ей свой любимый город. Судьба дает ему шанс, когда девушку отправляют взять интервью у известного режиссера. Однако этот дождливый день изменит их жизнь навсегда. В проливной суете мегаполиса он встретит свою давнюю подругу, а девушку затянет в мир звездной богемы...-Качество: BDRip 720p
    Формат: MKV
    Видео: AVC, 8246 Kb/s, 1280x640
    Аудио: AC3, 6 ch, 384 Kb/s
    Аудио: AC3, 6 ch, 640 Kb/s--

    MediaInfo

    General
    Unique ID : 208019436542752330893409370262988003964 (0x9C7F16103C218AE4B25F5E84D5161A7C)
    Complete name : A Rainy Day in New York • 2019 • D+O • BDRip 720p • AVC.76346498.mkv
    Format : Matroska
    Format version : Version 4
    File size : 6.10 GiB
    Duration : 1 h 32 min
    Overall bit rate : 9 459 kb/s
    Encoded date : UTC 2019-12-31 19:16:48
    Writing application : mkvmerge v6.5.0 ('Isn't she lovely') built on Oct 20 2013 12:50:05
    Writing library : libebml v1.3.0 + libmatroska v1.4.1
    Video
    ID : 1
    Format : AVC
    Format/Info : Advanced Video Codec
    Format profile : High@L4.1
    Format settings : CABAC / 10 Ref Frames
    Format settings, CABAC : Yes
    Format settings, Reference : 10 frames
    Codec ID : V_MPEG4/ISO/AVC
    Duration : 1 h 32 min
    Bit rate : 8 246 kb/s
    Width : 1 280 pixels
    Height : 640 pixels
    Display aspect ratio : 2.000
    Frame rate mode : Constant
    Frame rate : 23.976 (24000/1001) FPS
    Color space : YUV
    Chroma subsampling : 4:2:0
    Bit depth : 8 bits
    Scan type : Progressive
    Bits/(Pixel*Frame) : 0.420
    Stream size : 5.32 GiB (87%)
    Writing library : x264 core 146 r2538 121396c
    Encoding settings : cabac=1 / ref=10 / deblock=1:-3:-3 / analyse=0x3:0x133 / me=umh / subme=10 / psy=1 / psy_rd=1.00:0.00 / mixed_ref=1 / me_range=32 / chroma_me=1 / trellis=2 / 8x8dct=1 / cqm=0 / deadzone=21,11 / fast_pskip=0 / chroma_qp_offset=-2 / threads=6 / lookahead_threads=1 / sliced_threads=0 / nr=0 / decimate=0 / interlaced=0 / bluray_compat=0 / constrained_intra=0 / bframes=9 / b_pyramid=2 / b_adapt=2 / b_bias=0 / direct=3 / weightb=1 / open_gop=0 / weightp=2 / keyint=250 / keyint_min=23 / scenecut=40 / intra_refresh=0 / rc=crf / mbtree=0 / crf=16.0 / qcomp=0.60 / qpmin=0 / qpmax=69 / qpstep=4 / ip_ratio=1.40 / pb_ratio=1.30 / aq=3:0.80
    Language : English
    Default : Yes
    Forced : No
    Audio #1
    ID : 2
    Format : AC-3
    Format/Info : Audio Coding 3
    Commercial name : Dolby Digital
    Codec ID : A_AC3
    Duration : 1 h 32 min
    Bit rate mode : Constant
    Bit rate : 384 kb/s
    Channel(s) : 6 channels
    Channel layout : L R C LFE Ls Rs
    Sampling rate : 48.0 kHz
    Frame rate : 31.250 FPS (1536 SPF)
    Compression mode : Lossy
    Stream size : 254 MiB (4%)
    Language : Russian
    Service kind : Complete Main
    Default : Yes
    Forced : Yes
    Audio #2
    ID : 3
    Format : AC-3
    Format/Info : Audio Coding 3
    Commercial name : Dolby Digital
    Codec ID : A_AC3
    Duration : 1 h 32 min
    Bit rate mode : Constant
    Bit rate : 640 kb/s
    Channel(s) : 6 channels
    Channel layout : L R C LFE Ls Rs
    Sampling rate : 48.0 kHz
    Frame rate : 31.250 FPS (1536 SPF)
    Compression mode : Lossy
    Stream size : 423 MiB (7%)
    Language : English
    Service kind : Complete Main
    Default : No
    Forced : No
    Text #1
    ID : 4
    Format : UTF-8
    Codec ID : S_TEXT/UTF8
    Codec ID/Info : UTF-8 Plain Text
    Title : Full (iTunes)
    Language : Russian
    Default : No
    Forced : No
    Text #2
    ID : 5
    Format : UTF-8
    Codec ID : S_TEXT/UTF8
    Codec ID/Info : UTF-8 Plain Text
    Language : English
    Default : No
    Forced : No
    Menu
    00:00:00.000 : en:Chapter 01
    00:04:58.507 : en:Chapter 02
    00:07:39.376 : en:Chapter 03
    00:12:23.159 : en:Chapter 04
    00:16:57.016 : en:Chapter 05
    00:21:41.383 : en:Chapter 06
    00:27:55.799 : en:Chapter 07
    00:32:11.721 : en:Chapter 08
    00:37:20.989 : en:Chapter 09
    00:42:44.854 : en:Chapter 10
    00:45:11.542 : en:Chapter 11
    00:49:59.872 : en:Chapter 12
    00:54:46.450 : en:Chapter 13
    01:00:30.085 : en:Chapter 14
    01:04:27.489 : en:Chapter 15
    01:09:32.627 : en:Chapter 16
    01:12:15.915 : en:Chapter 17
    01:16:35.216 : en:Chapter 18
    01:21:22.836 : en:Chapter 19
    01:27:13.270 : en:Chapter 20

    _________________
    Показать сообщения:    
    Главная  Кинофильмы  Зарубежные кинофильмы  HD

    Текущее время: 25-Фев 17:18

    Часовой пояс: UTC + 5



    Вы не можете начинать темы
    Вы не можете отвечать на сообщения
    Вы не можете редактировать свои сообщения
    Вы не можете удалять свои сообщения
    Вы не можете голосовать в опросах
    Вы не можете прикреплять файлы к сообщениям
    Вы не можете скачивать файлы