Джуди / Judy (Руперт Гулд / Rupert Goold) [2019, Драма, мелодрама, биография, история, BDRip 1080p] iTunes :: UZTOR.PW Лучший трекер в зоне TAS-IX!
Регистрация ·
Имя: Пароль:  
· Забыли пароль?
Уважаемые гости сайта! Добро Пожаловать на наш торрент трекер,где Вы можете бесплатно скачать любой Софт,Фильмы,Музыку и многое другое! А так же постоянно ведется набор модераторов и релизеров. Зарегистрируйтесь сейчас, чтобы получить доступ ко всем функциям. После регистрации или входа на сайт вы сможете создавать темы, отвечать на сообщения и скачивать файлы.

Навигация по Торрент раздачам и Форум и Стол заказов и Группы

 Джуди / Judy (Руперт Гулд / Rupert Goold) [2019, Драма, мелодрама, биография, история, BDRip 1080p] iTunes

Главная  Кинофильмы  Зарубежные кинофильмы  HD
Статистика раздачи
Нет
 
     
 
 
Автор Сообщение
  • -InVoKeR- ®
  • Не в сети
  • Автор темы

  • 5057
  • VIP пользователь

  • Пол: Мужской

  • Стаж: 1 год 4 месяца

  • Сообщений: 501

  •  Россия

  • Откуда: из Криптона

  • Провайдер: UzOnline UzOnline

  • Тарифный план: Unlim 4 (Мир: 4 Мбит/с, Tas-ix: 100Мбит/с)

  • Steam: 76561198442747843

  • Telegram: i_Invoker

  • Карма: 1118


  • Наличие запрета:

  • Награды: 22 (Подробнее)
    Admin (Количество: 1) Авторитет (Количество: 1) Активный релизер 1 (Количество: 1) Активный релизер 2 (Количество: 1) Активный сидер 1 (Количество: 1)
  • Создавать темы 02-Янв-2020 11:28

    Джуди / Judy-- Год выпуска: 2019
    Страна: Великобритания
    Жанр: Драма, мелодрама, биография, история
    Продолжительность: 01:58:18
    Перевод: Дублированный iTunes-Режиссер: Руперт Гулд / Rupert Goold-В ролях: Рене Зеллвегер, Джесси Бакли, Руфус Сьюэлл, Финн Уиттрок, Майкл Гэмбон, Белла Рэмси, Гайя Вайсс, Джемма-Ли Деверё, Энди Найман, Фенелла Вулгар, Филипп Сполл, Левин Ллойд, Фил Данстер-Описание: Фильм рассказывает о последних концертах голливудской звезды Джуди Гарлэнд в Лондоне в 1968 году. Звезда «Волшебника страны Оз» готовится к шоу, ссорится с руководством, очаровывает музыкантов. Это хрупкая женщина, которую истощили годы тяжелой работы и тоска по детям.-Качество: BDRip 1080p
    Формат: mkv
    Видео: AVC, 7968 Кбит/с, 1920x804
    Аудио: Русский (AC3, 6 ch, 384 Кбит/с)
    Аудио: Английский (AC3, 6 ch, 448 Кбит/с)
    Субтитры: Английские--

    MediaInfo

    General
    Unique ID : 248733334686291031186995869553717774395 (0xBB204C38F2C375FFA2BF93A7F701883B)
    Complete name : Judy.2019.BDRip.1080p.mkv
    Format : Matroska
    Format version : Version 4
    File size : 7.27 GiB
    Duration : 1 h 58 min
    Overall bit rate : 8 796 kb/s
    Encoded date : UTC 2019-12-31 19:52:53
    Writing application : mkvmerge v9.5.0 ('Quiet Fire') 64bit
    Writing library : libebml v1.3.4 + libmatroska v1.4.5
    Video
    ID : 1
    Format : AVC
    Format/Info : Advanced Video Codec
    Format profile : High@L4.1
    Format settings : CABAC / 5 Ref Frames
    Format settings, CABAC : Yes
    Format settings, ReFrames : 5 frames
    Codec ID : V_MPEG4/ISO/AVC
    Duration : 1 h 58 min
    Bit rate : 7 968 kb/s
    Width : 1 920 pixels
    Height : 804 pixels
    Display aspect ratio : 2.40:1
    Frame rate mode : Constant
    Frame rate : 23.976 (24000/1001) FPS
    Color space : YUV
    Chroma subsampling : 4:2:0
    Bit depth : 8 bits
    Scan type : Progressive
    Bits/(Pixel*Frame) : 0.215
    Stream size : 6.44 GiB (89%)
    Title : Sisendrovich(R)
    Writing library : x264 core 157 r2958 57baac4
    Encoding settings : cabac=1 / ref=5 / deblock=1:-1:-1 / analyse=0x3:0x133 / me=tesa / subme=11 / psy=1 / psy_rd=1.00:0.00 / mixed_ref=1 / me_range=32 / chroma_me=1 / trellis=2 / 8x8dct=1 / cqm=0 / deadzone=21,11 / fast_pskip=0 / chroma_qp_offset=-2 / threads=17 / lookahead_threads=4 / sliced_threads=0 / nr=0 / decimate=0 / interlaced=0 / bluray_compat=0 / constrained_intra=0 / bframes=12 / b_pyramid=2 / b_adapt=2 / b_bias=0 / direct=3 / weightb=1 / open_gop=0 / weightp=2 / keyint=240 / keyint_min=23 / scenecut=40 / intra_refresh=0 / rc_lookahead=120 / rc=2pass / mbtree=0 / bitrate=7968 / ratetol=1.0 / qcomp=0.70 / qpmin=0 / qpmax=69 / qpstep=4 / cplxblur=20.0 / qblur=0.5 / vbv_maxrate=50000 / vbv_bufsize=62500 / nal_hrd=none / filler=0 / ip_ratio=1.40 / pb_ratio=1.30 / aq=3:0.90
    Language : English
    Default : Yes
    Forced : No
    Color range : Limited
    Color primaries : BT.709
    Transfer characteristics : BT.709
    Matrix coefficients : BT.709
    Audio #1
    ID : 2
    Format : AC-3
    Format/Info : Audio Coding 3
    Commercial name : Dolby Digital
    Codec ID : A_AC3
    Duration : 1 h 58 min
    Bit rate mode : Constant
    Bit rate : 384 kb/s
    Channel(s) : 6 channels
    Channel layout : L R C LFE Ls Rs
    Sampling rate : 48.0 kHz
    Frame rate : 31.250 FPS (1536 SPF)
    Bit depth : 16 bits
    Compression mode : Lossy
    Stream size : 325 MiB (4%)
    Title : rus
    Language : Russian
    Service kind : Complete Main
    Default : Yes
    Forced : No
    Audio #2
    ID : 3
    Format : AC-3
    Format/Info : Audio Coding 3
    Commercial name : Dolby Digital
    Codec ID : A_AC3
    Duration : 1 h 58 min
    Bit rate mode : Constant
    Bit rate : 448 kb/s
    Channel(s) : 6 channels
    Channel layout : L R C LFE Ls Rs
    Sampling rate : 48.0 kHz
    Frame rate : 31.250 FPS (1536 SPF)
    Bit depth : 16 bits
    Compression mode : Lossy
    Stream size : 379 MiB (5%)
    Title : eng
    Language : English
    Service kind : Complete Main
    Default : No
    Forced : No
    Text
    ID : 4
    Format : UTF-8
    Codec ID : S_TEXT/UTF8
    Codec ID/Info : UTF-8 Plain Text
    Title : engFull
    Language : English
    Default : No
    Forced : No
    Menu
    00:00:00.000 : :Chapter 01
    00:05:35.335 : :Chapter 02
    00:13:02.615 : :Chapter 03
    00:21:21.905 : :Chapter 04
    00:28:03.682 : :Chapter 05
    00:35:43.141 : :Chapter 06
    00:45:33.731 : :Chapter 07
    00:50:26.023 : :Chapter 08
    00:57:15.140 : :Chapter 09
    01:04:23.484 : :Chapter 10
    01:12:23.255 : :Chapter 11
    01:20:22.818 : :Chapter 12
    01:30:48.443 : :Chapter 13
    01:35:09.328 : :Chapter 14
    01:40:34.028 : :Chapter 15
    01:51:18.672 : :Chapter 16

    _________________
    Показать сообщения:    
    Главная  Кинофильмы  Зарубежные кинофильмы  HD

    Текущее время: 05-Апр 11:49

    Часовой пояс: UTC + 5



    Вы не можете начинать темы
    Вы не можете отвечать на сообщения
    Вы не можете редактировать свои сообщения
    Вы не можете удалять свои сообщения
    Вы не можете голосовать в опросах
    Вы не можете прикреплять файлы к сообщениям
    Вы не можете скачивать файлы