Гринч – похититель Рождества / How the Grinch Stole Christmas [REMASTERED] (Рон Ховард / Ron Howard) [2000, фэнтези, комедия, семейный, BDRip 1080р] :: UZTOR.PW Лучший трекер в зоне TAS-IX!
Регистрация ·
Имя: Пароль:  
· Забыли пароль?
Уважаемые гости сайта! Добро Пожаловать на наш торрент трекер,где Вы можете бесплатно скачать любой Софт,Фильмы,Музыку и многое другое! А так же постоянно ведется набор модераторов и релизеров. Зарегистрируйтесь сейчас, чтобы получить доступ ко всем функциям. После регистрации или входа на сайт вы сможете создавать темы, отвечать на сообщения и скачивать файлы.

Навигация по Торрент раздачам и Форум и Стол заказов и Группы

 Гринч – похититель Рождества / How the Grinch Stole Christmas [REMASTERED] (Рон Ховард / Ron Howard) [2000, фэнтези, комедия, семейный, BDRip 1080р]

Главная  Кинофильмы  Зарубежные кинофильмы  HD
Статистика раздачи
Нет
 
     
 
 
Автор Сообщение
  • -InVoKeR- ®
  • Не в сети
  • Автор темы

  • 5057
  • VIP пользователь

  • Пол: Мужской

  • Стаж: 1 год 3 месяца

  • Сообщений: 476

  •  Россия

  • Откуда: из Криптона

  • Провайдер: UzOnline UzOnline

  • Тарифный план: Unlim 4 (Мир: 4 Мбит/с, Tas-ix: 100Мбит/с)

  • Steam: 76561198442747843

  • Telegram: i_Invoker

  • Карма: 1118


  • Наличие запрета:

  • Награды: 22 (Подробнее)
    Admin (Количество: 1) Авторитет (Количество: 1) Активный релизер 1 (Количество: 1) Активный релизер 2 (Количество: 1) Активный сидер 1 (Количество: 1)
  • Создавать темы 31-Дек-2019 16:12

    Гринч – похититель Рождества
    How the Grinch Stole Christmas
    --Год выпуска: 2000
    Страна: США, Германия
    Жанр: фэнтези, комедия, семейный
    Продолжительность: 01:45:03
    Перевод: Дублированный
    Субтитры: русские, английские-Режиссер: Рон Ховард / Ron Howard-В ролях: Джим Керри, Тейлор Момсен, Келли, Джеффри Тэмбор, Кристин Барански, Билл Ирвин, Молли Шеннон, Клинт Ховард, Джош Райан Эванс, Минди Стерлинг, Рэйчел Уинфри, Рэнс Ховард-Описание: Жил-был в городе Ктограде человечек, и звали его - Гринч. Был он весь зеленый и волосатый, никто его не любил. Обиделся Гринч на ктовичей и ушел жить на одинокую, обдуваемую всеми ветрами гору. Сидел там в своей пещере и злился на весь свет. Больше всего Гринч ненавидел Рождество. В то время, как все население Ктограда веселилось от души, барометр и без того всегда плохого настроения Гринча показывал нечто ужасное.-Качество: BDRip 1080p
    Формат: MKV
    Видео: AVC, 1920x1040, 2500 kbps
    Аудио: AC3, 6 ch, 448 Кбит/с--

    MediaInfo

    General
    Unique ID : 177371747199235965261622478554823848942 (0x85708E50E648C6D08095BE8E51A6F3EE)
    Complete name : H:\Мои документы\Кино\Мои фильмы\Гринч – похититель Рождества.2000.REMASTERED.1080p.BluRay.H264.mkv
    Format : Matroska
    Format version : Version 4
    File size : 2.16 GiB
    Duration : 1 h 45 min
    Overall bit rate : 2 949 kb/s
    Encoded date : UTC 2019-09-02 05:10:07
    Writing application : mkvmerge v9.7.1 ('Pandemonium') 32bit
    Writing library : libebml v1.3.4 + libmatroska v1.4.5
    Cover : Yes
    Attachments : Cover.jpg
    Video
    ID : 1
    Format : AVC
    Format/Info : Advanced Video Codec
    Format profile : High@L4.1
    Format settings : CABAC / 4 Ref Frames
    Format settings, CABAC : Yes
    Format settings, Reference : 4 frames
    Codec ID : V_MPEG4/ISO/AVC
    Duration : 1 h 45 min
    Bit rate : 2 500 kb/s
    Width : 1 920 pixels
    Height : 1 040 pixels
    Display aspect ratio : 1.85:1
    Frame rate mode : Constant
    Frame rate : 23.976 (23976/1000) FPS
    Color space : YUV
    Chroma subsampling : 4:2:0
    Bit depth : 8 bits
    Scan type : Progressive
    Bits/(Pixel*Frame) : 0.052
    Stream size : 1.83 GiB (85%)
    Writing library : x264 core 152 r2851M ba24899
    Encoding settings : cabac=1 / ref=4 / deblock=1:-1:-1 / analyse=0x3:0x113 / me=umh / subme=9 / psy=1 / psy_rd=1.00:0.15 / mixed_ref=1 / me_range=24 / chroma_me=1 / trellis=2 / 8x8dct=1 / cqm=0 / deadzone=21,11 / fast_pskip=1 / chroma_qp_offset=-3 / threads=32 / lookahead_threads=4 / sliced_threads=0 / nr=0 / decimate=1 / interlaced=0 / bluray_compat=0 / constrained_intra=0 / bframes=3 / b_pyramid=2 / b_adapt=2 / b_bias=0 / direct=3 / weightb=1 / open_gop=0 / weightp=2 / keyint=250 / keyint_min=25 / scenecut=40 / intra_refresh=0 / rc_lookahead=50 / rc=2pass / mbtree=1 / bitrate=2500 / ratetol=1.0 / qcomp=0.60 / qpmin=0 / qpmax=69 / qpstep=4 / cplxblur=20.0 / qblur=0.5 / vbv_maxrate=31250 / vbv_bufsize=31250 / nal_hrd=none / filler=0 / ip_ratio=1.40 / aq=3:1.00
    Default : Yes
    Forced : No
    Audio
    ID : 2
    Format : AC-3
    Format/Info : Audio Coding 3
    Commercial name : Dolby Digital
    Codec ID : A_AC3
    Duration : 1 h 44 min
    Bit rate mode : Constant
    Bit rate : 448 kb/s
    Channel(s) : 6 channels
    Channel layout : L R C LFE Ls Rs
    Sampling rate : 48.0 kHz
    Frame rate : 31.250 FPS (1536 SPF)
    Bit depth : 16 bits
    Compression mode : Lossy
    Delay relative to video : -43 ms
    Stream size : 336 MiB (15%)
    Service kind : Complete Main
    Default : Yes
    Forced : No
    Text #1
    ID : 3
    Format : UTF-8
    Codec ID : S_TEXT/UTF8
    Codec ID/Info : UTF-8 Plain Text
    Duration : 1 h 35 min
    Bit rate : 60 b/s
    Count of elements : 1046
    Stream size : 42.3 KiB (0%)
    Default : Yes
    Forced : No
    Text #2
    ID : 4
    Format : UTF-8
    Codec ID : S_TEXT/UTF8
    Codec ID/Info : UTF-8 Plain Text
    Duration : 1 h 43 min
    Bit rate : 119 b/s
    Count of elements : 1537
    Stream size : 91.0 KiB (0%)
    Default : No
    Forced : No
    Text #3
    ID : 5
    Format : UTF-8
    Codec ID : S_TEXT/UTF8
    Codec ID/Info : UTF-8 Plain Text
    Duration : 1 h 43 min
    Bit rate : 83 b/s
    Count of elements : 1251
    Stream size : 63.1 KiB (0%)
    Default : No
    Forced : No
    Text #4
    ID : 6
    Format : UTF-8
    Codec ID : S_TEXT/UTF8
    Codec ID/Info : UTF-8 Plain Text
    Duration : 1 h 35 min
    Bit rate : 60 b/s
    Count of elements : 1047
    Stream size : 42.4 KiB (0%)
    Default : No
    Forced : No

    _________________
    Показать сообщения:    
    Главная  Кинофильмы  Зарубежные кинофильмы  HD

    Текущее время: 18-Фев 15:06

    Часовой пояс: UTC + 5



    Вы не можете начинать темы
    Вы не можете отвечать на сообщения
    Вы не можете редактировать свои сообщения
    Вы не можете удалять свои сообщения
    Вы не можете голосовать в опросах
    Вы не можете прикреплять файлы к сообщениям
    Вы не можете скачивать файлы