Перспектива / Prospect (Кристофер Колдуэлл, Зик Эрл / Christopher Caldwell, Zeek Earl) [2018, Фантастика, BDRip 1080p] iTunes :: UZTOR.PW Лучший трекер в зоне TAS-IX!
Регистрация ·
Имя: Пароль:  
· Забыли пароль?
Уважаемые гости сайта! Добро Пожаловать на наш торрент трекер,где Вы можете бесплатно скачать любой Софт,Фильмы,Музыку и многое другое! А так же постоянно ведется набор модераторов и релизеров. Зарегистрируйтесь сейчас, чтобы получить доступ ко всем функциям. После регистрации или входа на сайт вы сможете создавать темы, отвечать на сообщения и скачивать файлы.

Навигация по Торрент раздачам и Форум и Стол заказов и Группы

 Перспектива / Prospect (Кристофер Колдуэлл, Зик Эрл / Christopher Caldwell, Zeek Earl) [2018, Фантастика, BDRip 1080p] iTunes

Главная  Кинофильмы  Зарубежные кинофильмы  HD
Статистика раздачи
Нет
 
     
 
 
Автор Сообщение
  • -InVoKeR- ®
  • Не в сети
  • Автор темы

  • 5057
  • VIP пользователь

  • Пол: Мужской

  • Стаж: 1 год 4 месяца

  • Сообщений: 501

  •  Россия

  • Откуда: из Криптона

  • Провайдер: UzOnline UzOnline

  • Тарифный план: Unlim 4 (Мир: 4 Мбит/с, Tas-ix: 100Мбит/с)

  • Steam: 76561198442747843

  • Telegram: i_Invoker

  • Карма: 1118


  • Наличие запрета:

  • Награды: 22 (Подробнее)
    Admin (Количество: 1) Авторитет (Количество: 1) Активный релизер 1 (Количество: 1) Активный релизер 2 (Количество: 1) Активный сидер 1 (Количество: 1)
  • Создавать темы 30-Дек-2019 10:19

    Перспектива / Prospect-- Год выпуска: 2018
    Страна: Канада, США
    Жанр: Фантастика
    Продолжительность: 01:40:06
    Перевод: Дублированный iTunes-Режиссер: Кристофер Колдуэлл, Зик Эрл / Christopher Caldwell, Zeek Earl-В ролях: Софи Тэтчер, Джей Дюпласс, Педро Паскаль, Люк Питцрик, Артур Деранло, Андре Ройо, Алекс МакКоли, Даг Доусон, Криста Джонсон, Брайан Гантер-Описание: В надежде разбогатеть отец с дочерью отправляются на отдалённую луну, где планируют добывать драгоценные камни, сокрытые в глубине опасных лесов. Быстро выясняется, что на луне есть и другие люди, желающие поправить собственное финансовое положение. В итоге вся операция превращается в попытку выжить и сохранить свои жизни. Вынужденная сражаться не только с внешними врагами, но и с жадностью отца, девушка понимает, что она должна сама проложить себе путь к спасению.-Качество: BDRip 1080
    Формат: mkv
    Видео: AVC, 1920x1014, 16.9 Mbit/s, 23.976 fps
    Аудио #01: 48 kHz, AC3, 5.1, 384 Kbps | iTunes | RUS |
    Аудио #02: 48 kHz, AC3, 5.1, 640 Kbps | Оригинал | ENG |
    Субтитры: Русские (Full), английские--

    MediaInfo

    General
    Unique ID : 61587837117436607334715070125199179332 (0x2E5562CF06694E9D4D7BFD3A3FD5BE44)
    Complete name : Prospect.2018.BDRip.1080.mkv
    Format : Matroska
    Format version : Version 4
    File size : 12.5 GiB
    Duration : 1 h 39 min
    Overall bit rate : 17.9 Mb/s
    Movie name : Prospect 2018 from селезень
    Encoded date : UTC 2019-12-29 21:43:56
    Writing application : mkvmerge v40.0.0 ('Old Town Road + Pony') 64-bit
    Writing library : libebml v1.3.9 + libmatroska v1.5.2
    Video
    ID : 1
    Format : AVC
    Format/Info : Advanced Video Codec
    Format profile : High@L4.1
    Format settings : CABAC / 4 Ref Frames
    Format settings, CABAC : Yes
    Format settings, Reference : 4 frames
    Codec ID : V_MPEG4/ISO/AVC
    Duration : 1 h 39 min
    Bit rate : 16.9 Mb/s
    Width : 1 920 pixels
    Height : 1 014 pixels
    Display aspect ratio : 1.893
    Frame rate mode : Constant
    Frame rate : 23.976 (24000/1001) FPS
    Color space : YUV
    Chroma subsampling : 4:2:0
    Bit depth : 8 bits
    Scan type : Progressive
    Bits/(Pixel*Frame) : 0.361
    Stream size : 11.8 GiB (94%)
    Title : SillyBird
    Writing library : x264 core 157 r2867+103 0d6443f t_mod_Custom_2 [8-bit@all X86_64]
    Encoding settings : cabac=1 / ref=4 / deblock=1:-3:-3 / analyse=0x3:0x133 / me=umh / subme=10 / psy=1 / fade_compensate=0.00 / psy_rd=1.00:0.00 / mixed_ref=1 / me_range=32 / chroma_me=1 / trellis=2 / 8x8dct=1 / cqm=0 / deadzone=21,11 / fast_pskip=0 / chroma_qp_offset=-2 / threads=24 / lookahead_threads=4 / sliced_threads=0 / nr=0 / decimate=0 / interlaced=0 / bluray_compat=0 / constrained_intra=0 / fgo=0 / bframes=8 / b_pyramid=2 / b_adapt=2 / b_bias=0 / direct=3 / weightb=1 / open_gop=0 / weightp=2 / keyint=250 / keyint_min=23 / scenecut=40 / intra_refresh=0 / rc_lookahead=60 / rc=crf / mbtree=0 / crf=16.2000 / qcomp=0.65 / qpmin=0:0:0 / qpmax=69:69:69 / qpstep=4 / vbv_maxrate=62500 / vbv_bufsize=78125 / crf_max=0.0 / nal_hrd=none / filler=0 / ip_ratio=1.40 / pb_ratio=1.30 / aq=3:0.80 / aq-sensitivity=10.00 / aq-factor=1.00:1.00:1.00 / aq2=0 / aq3=0 / zones=249,901,crf=14.5/29198,29920,crf=14.2/53809,54043,crf=14.2/56823,57076,crf=14/57074,58203,crf=14.2/67794,68242,crf=14/68423,69189,crf=13.5/89218,89368,crf=13.5/90124,90815,crf=14/99855,103631,crf=14/104399,121149,b=0.9/121234,128989,b=0.9/129772,130399,b=0.9/134315,135074,crf=14/135075,143649,b=0.6
    Language : English
    Default : Yes
    Forced : No
    Audio #1
    ID : 2
    Format : AC-3
    Format/Info : Audio Coding 3
    Commercial name : Dolby Digital
    Codec ID : A_AC3
    Duration : 1 h 39 min
    Bit rate mode : Constant
    Bit rate : 384 kb/s
    Channel(s) : 6 channels
    Channel layout : L R C LFE Ls Rs
    Sampling rate : 48.0 kHz
    Frame rate : 31.250 FPS (1536 SPF)
    Compression mode : Lossy
    Stream size : 274 MiB (2%)
    Title : iTunes
    Language : Russian
    Service kind : Complete Main
    Default : Yes
    Forced : Yes
    Audio #2
    ID : 3
    Format : AC-3
    Format/Info : Audio Coding 3
    Commercial name : Dolby Digital
    Codec ID : A_AC3
    Duration : 1 h 39 min
    Bit rate mode : Constant
    Bit rate : 640 kb/s
    Channel(s) : 6 channels
    Channel layout : L R C LFE Ls Rs
    Sampling rate : 48.0 kHz
    Frame rate : 31.250 FPS (1536 SPF)
    Compression mode : Lossy
    Stream size : 457 MiB (4%)
    Title : Original
    Language : English
    Service kind : Complete Main
    Default : No
    Forced : No
    Text #1
    ID : 4
    Format : UTF-8
    Codec ID : S_TEXT/UTF8
    Codec ID/Info : UTF-8 Plain Text
    Duration : 1 h 28 min
    Bit rate : 51 b/s
    Count of elements : 663
    Stream size : 33.3 KiB (0%)
    Title : Full
    Language : Russian
    Default : No
    Forced : No
    Text #2
    ID : 5
    Format : UTF-8
    Codec ID : S_TEXT/UTF8
    Codec ID/Info : UTF-8 Plain Text
    Duration : 1 h 38 min
    Bit rate : 32 b/s
    Count of elements : 968
    Stream size : 23.6 KiB (0%)
    Title : Full
    Language : English
    Default : No
    Forced : No
    Text #3
    ID : 6
    Format : UTF-8
    Codec ID : S_TEXT/UTF8
    Codec ID/Info : UTF-8 Plain Text
    Duration : 1 h 38 min
    Bit rate : 44 b/s
    Count of elements : 1417
    Stream size : 31.9 KiB (0%)
    Title : SDH
    Language : English
    Default : No
    Forced : No
    Menu
    00:00:00.000 : en:00:00:00.000
    00:07:43.922 : en:00:07:43.922
    00:13:02.532 : en:00:13:02.532
    00:20:54.795 : en:00:20:54.795
    00:27:59.845 : en:00:27:59.845
    00:35:11.568 : en:00:35:11.568
    00:46:54.061 : en:00:46:54.061
    00:54:41.737 : en:00:54:41.737
    01:02:19.569 : en:01:02:19.569
    01:12:29.053 : en:01:12:29.053
    01:20:09.304 : en:01:20:09.304
    01:28:26.968 : en:01:28:26.968

    _________________
    Показать сообщения:    
    Главная  Кинофильмы  Зарубежные кинофильмы  HD

    Текущее время: 05-Апр 12:26

    Часовой пояс: UTC + 5



    Вы не можете начинать темы
    Вы не можете отвечать на сообщения
    Вы не можете редактировать свои сообщения
    Вы не можете удалять свои сообщения
    Вы не можете голосовать в опросах
    Вы не можете прикреплять файлы к сообщениям
    Вы не можете скачивать файлы