Мандалорец / The Mandalorian / Сезон 1 полный / Серии 8 из 8 (Дебора Чоу, Рик Фамуйива, Дэйв Филони, Брайс Даллас Ховард, Тайка Вайтити) [2019, фантастика, боевик, приключения, WEB-DL 1080p] MVO (AlexFilm) :: UZTOR.PW Лучший трекер в зоне TAS-IX!
 
Уважаемые гости сайта! Добро Пожаловать на наш торрент трекер,где Вы можете бесплатно скачать любой Софт,Фильмы,Музыку и многое другое! А так же постоянно ведется набор модераторов и релизеров. Зарегистрируйтесь сейчас, чтобы получить доступ ко всем функциям. После регистрации или входа на сайт вы сможете создавать темы, отвечать на сообщения и скачивать файлы.

Навигация по Торрент раздачам и Форум и Стол заказов и Группы



 Мандалорец / The Mandalorian / Сезон 1 полный / Серии 8 из 8 (Дебора Чоу, Рик Фамуйива, Дэйв Филони, Брайс Даллас Ховард, Тайка Вайтити) [2019, фантастика, боевик, приключения, WEB-DL 1080p] MVO (AlexFilm)

Главная  Сериалы  Американские и Европейские сериалы
Статистика раздачи
Скачал: [ 1 ]
 
     
 
 
Автор Сообщение
  • -InVoKeR- ®
  • Не в сети

    Автор темы

  • 5057
  • VIP пользователь

  • Пол: Мужской

  • Стаж: 1 год 7 месяцев

  • Сообщений: 578

  •  Узбекистан

  • Откуда: из Криптона

  • Провайдер: UzOnline UzOnline

  • Тарифный план: Unlim 10 Premium (Мир: 300 Мбит/с, Tas-ix: 300Мбит/с)

  • Steam: 76561198442747843

  • Telegram: i_Invoker

  • Карма: 1130


  • Нет нарушения:

  • Награды: 22 (Подробнее)
    Admin (Количество: 1) Авторитет (Количество: 1) Активный релизер 1 (Количество: 1) Активный релизер 2 (Количество: 1) Активный сидер 1 (Количество: 1)
  • Создавать темы 30-Дек-2019 09:28

    Мандалорец / The Mandalorian-- Год выпуска: 2019
    Страна: США
    Жанр: Фантастика, боевик, приключения
    Продолжительность: ~ 00:40:00
    Перевод: Профессиональный (многоголосый, закадровый) AlexFilm
    Внимание: Реклама отсутствует!-Режиссер: Дебора Чоу, Рик Фамуйива, Дэйв Филони-В ролях: Педро Паскаль, Кайл Пацек, Брендан Уэйн, Бернард Баллен, Александра Гилман, Луис Ричард Гомес, Джамал Антар, Тейт Флетчер, Тони Табоада, Омид Абтахи-Описание: Одинокий мандалорец-наёмник живёт на краю обитаемой галактики, куда не дотягивается закон Новой Республики. Представитель некогда могучей расы благородных воинов теперь вынужден влачить жалкое существование среди отбросов общества.-Качество: WEB-DL 1080p
    Формат: MKV
    Видео: AVC, 1920x1080, 8457 Кбит/сек
    Видео 2-4 серия: AVC, 1920x804, 10,2 Мбит/сек
    Аудио RUS: AC3, 6 ch, 384 Кбит/сек
    Аудио ENG: AC3, 6 ch, 768 Кбит/сек
    Субтитры: Русские, английские--

    MediaInfo

    General
    Unique ID : 314187731456904942771977959968083786046 (0xEC5E5B23F160CAF433002003B11BB93E)
    Complete name : The Mandalorian (Season 1) WEB-DL 1080p\The.Mandalorian.S01E01.INTERNAL.1080p.WEB.H264-DEFLATE.RGzsRutracker.mkv
    Format : Matroska
    Format version : Version 4
    File size : 2.60 GiB
    Duration : 38 min 46 s
    Overall bit rate mode : Variable
    Overall bit rate : 9 611 kb/s
    Movie name : The Mandalorian 01x01 (Chapter One) - Release by Wentworth_Miller
    Encoded date : UTC 2019-11-13 08:04:58
    Writing application : mkvmerge v19.0.0 ('Brave Captain') 32-bit
    Writing library : libebml v1.3.5 + libmatroska v1.4.8
    Video
    ID : 1
    Format : AVC
    Format/Info : Advanced Video Codec
    Format profile : High@L4
    Format settings : CABAC / 4 Ref Frames
    Format settings, CABAC : Yes
    Format settings, ReFrames : 4 frames
    Codec ID : V_MPEG4/ISO/AVC
    Duration : 38 min 46 s
    Bit rate mode : Variable
    Bit rate : 8 457 kb/s
    Maximum bit rate : 12.7 Mb/s
    Width : 1 920 pixels
    Height : 1 080 pixels
    Display aspect ratio : 16:9
    Frame rate mode : Constant
    Frame rate : 23.976 (24000/1001) FPS
    Color space : YUV
    Chroma subsampling : 4:2:0
    Bit depth : 8 bits
    Scan type : Progressive
    Bits/(Pixel*Frame) : 0.170
    Stream size : 2.29 GiB (88%)
    Language : English
    Default : Yes
    Forced : No
    Color range : Limited
    Color primaries : BT.709
    Transfer characteristics : BT.709
    Matrix coefficients : BT.709
    Audio #1
    ID : 2
    Format : AC-3
    Format/Info : Audio Coding 3
    Commercial name : Dolby Digital
    Codec ID : A_AC3
    Duration : 38 min 46 s
    Bit rate mode : Constant
    Bit rate : 384 kb/s
    Channel(s) : 6 channels
    Channel layout : L R C LFE Ls Rs
    Sampling rate : 48.0 kHz
    Frame rate : 31.250 FPS (1536 SPF)
    Bit depth : 16 bits
    Compression mode : Lossy
    Stream size : 106 MiB (4%)
    Title : AlexFilm
    Language : Russian
    Service kind : Complete Main
    Default : Yes
    Forced : No
    Audio #2
    ID : 3
    Format : E-AC-3 JOC
    Format/Info : Enhanced AC-3 with Joint Object Coding
    Commercial name : Dolby Digital Plus with Dolby Atmos
    Codec ID : A_EAC3
    Duration : 38 min 46 s
    Bit rate mode : Constant
    Bit rate : 768 kb/s
    Channel(s) : 6 channels
    Channel layout : L R C LFE Ls Rs
    Sampling rate : 48.0 kHz
    Frame rate : 31.250 FPS (1536 SPF)
    Compression mode : Lossy
    Stream size : 213 MiB (8%)
    Language : English
    Service kind : Complete Main
    Default : No
    Forced : No
    Complexity index : 16
    Number of dynamic objects : 15
    Bed channel count : 1 channel
    Bed channel configuration : LFE
    Text #1
    ID : 4
    Format : UTF-8
    Codec ID : S_TEXT/UTF8
    Codec ID/Info : UTF-8 Plain Text
    Duration : 35 min 3 s
    Bit rate : 52 b/s
    Count of elements : 302
    Stream size : 13.5 KiB (0%)
    Title : FOCS
    Language : Russian
    Default : Yes
    Forced : No
    Text #2
    ID : 5
    Format : UTF-8
    Codec ID : S_TEXT/UTF8
    Codec ID/Info : UTF-8 Plain Text
    Duration : 35 min 34 s
    Bit rate : 41 b/s
    Count of elements : 428
    Stream size : 10.9 KiB (0%)
    Title : English
    Language : English
    Default : No
    Forced : No
    Text #3
    ID : 6
    Format : UTF-8
    Codec ID : S_TEXT/UTF8
    Codec ID/Info : UTF-8 Plain Text
    Duration : 34 min 54 s
    Bit rate : 29 b/s
    Count of elements : 288
    Stream size : 7.63 KiB (0%)
    Title : English (SDH)
    Language : English
    Default : No
    Forced : No

    _________________
    Показать сообщения:    
    Главная  Сериалы  Американские и Европейские сериалы

    Текущее время: 15-Июл 10:50

    Часовой пояс: UTC + 5



    Вы не можете начинать темы
    Вы не можете отвечать на сообщения
    Вы не можете редактировать свои сообщения
    Вы не можете удалять свои сообщения
    Вы не можете голосовать в опросах
    Вы не можете прикреплять файлы к сообщениям
    Вы не можете скачивать файлы