Мандалорец / The Mandalorian / Сезон 1 Полный / Серии 1-8 из 8 (Дебора Чоу, Рик Фамуйива, Дэйв Филони) [2019, Фантастика, боевик, приключения, WEBRip-HEVC 1080p] MVO (BaibaKo.tv) :: UZTOR.PW Лучший трекер в зоне TAS-IX!
Регистрация ·
Имя: Пароль:  
· Забыли пароль?
Уважаемые гости сайта! Добро Пожаловать на наш торрент трекер,где Вы можете бесплатно скачать любой Софт,Фильмы,Музыку и многое другое! А так же постоянно ведется набор модераторов и релизеров. Зарегистрируйтесь сейчас, чтобы получить доступ ко всем функциям. После регистрации или входа на сайт вы сможете создавать темы, отвечать на сообщения и скачивать файлы.

Навигация по Торрент раздачам и Форум и Стол заказов и Группы

  Мандалорец / The Mandalorian / Сезон 1 Полный / Серии 1-8 из 8 (Дебора Чоу, Рик Фамуйива, Дэйв Филони) [2019, Фантастика, боевик, приключения, WEBRip-HEVC 1080p] MVO (BaibaKo.tv)

Главная  Сериалы  Американские и Европейские сериалы
Статистика раздачи
Нет
 
     
 
 
Автор Сообщение
  • -InVoKeR- ®
  • Не в сети
  • Автор темы

  • 5057
  • VIP пользователь

  • Пол: Мужской

  • Стаж: 1 год 3 месяца

  • Сообщений: 476

  •  Узбекистан

  • Откуда: из Криптона

  • Провайдер: UzOnline UzOnline

  • Тарифный план: Unlim 4 (Мир: 4 Мбит/с, Tas-ix: 100Мбит/с)

  • Steam: 76561198442747843

  • Telegram: i_Invoker

  • Карма: 1118


  • Наличие запрета:

  • Награды: 22 (Подробнее)
    Admin (Количество: 1) Авторитет (Количество: 1) Активный релизер 1 (Количество: 1) Активный релизер 2 (Количество: 1) Активный сидер 1 (Количество: 1)
  • Создавать темы 29-Дек-2019 19:41

    Мандалорец / The Mandalorian-- Год выпуска: 2019
    Страна: США
    Жанр: Фантастика, боевик, приключения
    Продолжительность: ~ 00:40:00
    Перевод: Профессиональный (многоголосый, закадровый) BaibaKo.tv
    Внимание: Присутствует Реклама!-Режиссер: Дебора Чоу, Рик Фамуйива, Дэйв Филони-В ролях: Педро Паскаль, Кайл Пацек, Брендан Уэйн, Бернард Баллен, Александра Гилман, Луис Ричард Гомес, Джамал Антар, Тейт Флетчер, Тони Табоада, Омид Абтахи-Описание: Одинокий мандалорец-наёмник живёт на краю обитаемой галактики, куда не дотягивается закон Новой Республики. Представитель некогда могучей расы благородных воинов теперь вынужден влачить жалкое существование среди отбросов общества.-Качество: WEBRip-HEVC 1080p
    Формат: MKV
    Видео: HEVC, 1920x1080, 11.8 Mb/s, 8 bit
    Аудио RUS: AC3, 6 ch, 448 Kb/s
    Аудио ENG: AC3, 6 ch, 448 Kb/s--

    MediaInfo

    General
    Unique ID : 334867407096899192059011329907892364102 (0xFBED1DDE43792918470586C96E4F2346)
    Complete name : The.Mandalorian.s01.HD1080p.WEBRip.HEVC.Rus.Eng.BaibaKo.tv\The.Mandalorian.s01e01.HD1080p.WEBRip.HEVC.Rus.Eng.BaibaKo.tv.mkv
    Format : Matroska
    Format version : Version 4 / Version 2
    File size : 3.49 GiB
    Duration : 39 min 26 s
    Overall bit rate : 12.7 Mb/s
    Encoded date : UTC 2019-11-12 19:02:29
    Writing application : mkvmerge v30.1.0 ('Forever And More') 64-bit
    Writing library : libebml v1.3.6 + libmatroska v1.4.9
    Video
    ID : 1
    Format : HEVC
    Format/Info : High Efficiency Video Coding
    Format profile : Main@L4@High
    Codec ID : V_MPEGH/ISO/HEVC
    Duration : 39 min 26 s
    Bit rate : 11.8 Mb/s
    Width : 1 920 pixels
    Height : 1 080 pixels
    Display aspect ratio : 16:9
    Frame rate mode : Constant
    Frame rate : 23.976 (24000/1001) FPS
    Color space : YUV
    Chroma subsampling : 4:2:0
    Bit depth : 8 bits
    Bits/(Pixel*Frame) : 0.237
    Stream size : 3.24 GiB (93%)
    Language : English
    Default : Yes
    Forced : No
    Audio #1
    ID : 2
    Format : AC-3
    Format/Info : Audio Coding 3
    Format settings, Endianness : Big
    Codec ID : A_AC3
    Duration : 39 min 26 s
    Bit rate mode : Constant
    Bit rate : 448 kb/s
    Channel(s) : 6 channels
    Channel positions : Front: L C R, Side: L R, LFE
    Sampling rate : 48.0 kHz
    Frame rate : 31.250 FPS (1536 SPF)
    Bit depth : 16 bits
    Compression mode : Lossy
    Stream size : 126 MiB (4%)
    Language : Russian
    Service kind : Complete Main
    Default : Yes
    Forced : No
    Audio #2
    ID : 3
    Format : AC-3
    Format/Info : Audio Coding 3
    Format settings, Endianness : Big
    Codec ID : A_AC3
    Duration : 39 min 26 s
    Bit rate mode : Constant
    Bit rate : 448 kb/s
    Channel(s) : 6 channels
    Channel positions : Front: L C R, Side: L R, LFE
    Sampling rate : 48.0 kHz
    Frame rate : 31.250 FPS (1536 SPF)
    Bit depth : 16 bits
    Compression mode : Lossy
    Stream size : 126 MiB (4%)
    Language : English
    Service kind : Complete Main
    Default : No
    Forced : No
    Video: HVC1 1920x1080 23.976fps [V: English [eng] (hevc main, yuv420p, 1920x1080) [default]]
    Audio: Dolby AC3 48000Hz 6ch 448kbps [A: Russian [rus] (ac3, 48000 Hz, 5.1, 448 kb/s) [default]]
    Audio: Dolby AC3 48000Hz 6ch 448kbps [A: English [eng] (ac3, 48000 Hz, 5.1, 448 kb/s)]

    _________________
    Показать сообщения:    
    Главная  Сериалы  Американские и Европейские сериалы

    Текущее время: 25-Фев 14:34

    Часовой пояс: UTC + 5



    Вы не можете начинать темы
    Вы не можете отвечать на сообщения
    Вы не можете редактировать свои сообщения
    Вы не можете удалять свои сообщения
    Вы не можете голосовать в опросах
    Вы не можете прикреплять файлы к сообщениям
    Вы не можете скачивать файлы