Мандалорец / The Mandalorian / Сезон 1 Полный / Серии 1-8 из 8 (Дебора Чоу, Рик Фамуйива, Дэйв Филони) [2019, Фантастика, боевик, приключения, WEBRip-AVC] MVO (BaibaKo.tv) :: UZTOR.PW Лучший трекер в зоне TAS-IX!
Регистрация ·
Имя: Пароль:  
· Забыли пароль?
Уважаемые гости сайта! Добро Пожаловать на наш торрент трекер,где Вы можете бесплатно скачать любой Софт,Фильмы,Музыку и многое другое! А так же постоянно ведется набор модераторов и релизеров. Зарегистрируйтесь сейчас, чтобы получить доступ ко всем функциям. После регистрации или входа на сайт вы сможете создавать темы, отвечать на сообщения и скачивать файлы.

Навигация по Торрент раздачам и Форум и Стол заказов и Группы

  Мандалорец / The Mandalorian / Сезон 1 Полный / Серии 1-8 из 8 (Дебора Чоу, Рик Фамуйива, Дэйв Филони) [2019, Фантастика, боевик, приключения, WEBRip-AVC] MVO (BaibaKo.tv)

Главная  Сериалы  Американские и Европейские сериалы
Статистика раздачи
Нет
 
     
 
 
Автор Сообщение
  • -InVoKeR- ®
  • Не в сети
  • Автор темы

  • 5057
  • VIP пользователь

  • Пол: Мужской

  • Стаж: 1 год 3 месяца

  • Сообщений: 476

  •  Узбекистан

  • Откуда: из Криптона

  • Провайдер: UzOnline UzOnline

  • Тарифный план: Unlim 4 (Мир: 4 Мбит/с, Tas-ix: 100Мбит/с)

  • Steam: 76561198442747843

  • Telegram: i_Invoker

  • Карма: 1118


  • Наличие запрета:

  • Награды: 22 (Подробнее)
    Admin (Количество: 1) Авторитет (Количество: 1) Активный релизер 1 (Количество: 1) Активный релизер 2 (Количество: 1) Активный сидер 1 (Количество: 1)
  • Создавать темы 29-Дек-2019 19:28

    Мандалорец / The Mandalorian-- Год выпуска: 2019
    Страна: США
    Жанр: Фантастика, боевик, приключения
    Продолжительность: ~ 00:40:00
    Перевод: Профессиональный (многоголосый, закадровый) BaibaKo.tv
    Внимание: Присутствует Реклама!-Режиссер: Дебора Чоу, Рик Фамуйива, Дэйв Филони-В ролях: Педро Паскаль, Кайл Пацек, Брендан Уэйн, Бернард Баллен, Александра Гилман, Луис Ричард Гомес, Джамал Антар, Тейт Флетчер, Тони Табоада, Омид Абтахи-Описание: Одинокий мандалорец-наёмник живёт на краю обитаемой галактики, куда не дотягивается закон Новой Республики. Представитель некогда могучей расы благородных воинов теперь вынужден влачить жалкое существование среди отбросов общества.-Качество: WEBRip-AVC
    Формат: MP4
    Видео: AVC 1426 Кбит/сек 720x400 (1.800) 23,976 (24000/1001) кадра/сек
    Аудио RUS: AAC LC 265 Кбит/сек 2 канала
    Аудио ENG: AAC LC 265 Кбит/сек 2 канала--

    MediaInfo

    General
    Complete name : The.Mandalorian.s01.WEBRip.x264.Rus.Eng.BaibaKo.tv\The.Mandalorian.s01e01.WEBRip.x264.Rus.Eng.BaibaKo.tv.mp4
    Format : MPEG-4
    Format profile : Base Media
    Codec ID : isom (isom/avc1)
    File size : 552 MiB
    Duration : 39 min 26 s
    Overall bit rate mode : Variable
    Overall bit rate : 1 958 kb/s
    Encoded date : UTC 2019-11-12 20:06:12
    Tagged date : UTC 2019-11-12 20:06:12
    Writing application : StaxRip 2.0.0.0
    Video
    ID : 1
    Format : AVC
    Format/Info : Advanced Video Codec
    Format profile : High@L3
    Format settings, CABAC : Yes
    Format settings, RefFrames : 3 frames
    Codec ID : avc1
    Codec ID/Info : Advanced Video Coding
    Duration : 39 min 26 s
    Bit rate : 1 426 kb/s
    Maximum bit rate : 3 272 kb/s
    Width : 720 pixels
    Height : 400 pixels
    Display aspect ratio : 16:9
    Frame rate mode : Constant
    Frame rate : 23.976 (24000/1001) FPS
    Color space : YUV
    Chroma subsampling : 4:2:0
    Bit depth : 8 bits
    Scan type : Progressive
    Bits/(Pixel*Frame) : 0.207
    Stream size : 402 MiB (73%)
    Encoded date : UTC 2019-11-12 20:06:12
    Tagged date : UTC 2019-11-12 20:06:16
    Audio #1
    ID : 2
    Format : AAC
    Format/Info : Advanced Audio Codec
    Format profile : LC
    Codec ID : 40
    Duration : 39 min 26 s
    Bit rate mode : Variable
    Bit rate : 265 kb/s
    Maximum bit rate : 327 kb/s
    Channel(s) : 2 channels
    Channel positions : Front: L R
    Sampling rate : 48.0 kHz
    Frame rate : 46.875 FPS (1024 SPF)
    Compression mode : Lossy
    Stream size : 74.1 MiB (13%)
    Language : Russian
    Encoded date : UTC 2019-11-12 20:04:37
    Tagged date : UTC 2019-11-12 20:06:16
    Audio #2
    ID : 3
    Format : AAC
    Format/Info : Advanced Audio Codec
    Format profile : LC
    Codec ID : 40
    Duration : 39 min 26 s
    Bit rate mode : Variable
    Bit rate : 265 kb/s
    Maximum bit rate : 326 kb/s
    Channel(s) : 2 channels
    Channel positions : Front: L R
    Sampling rate : 48.0 kHz
    Frame rate : 46.875 FPS (1024 SPF)
    Compression mode : Lossy
    Stream size : 74.6 MiB (13%)
    Language : English
    Encoded date : UTC 2019-11-12 20:04:37
    Tagged date : UTC 2019-11-12 20:06:16

    _________________
    Показать сообщения:    
    Главная  Сериалы  Американские и Европейские сериалы

    Текущее время: 25-Фев 13:47

    Часовой пояс: UTC + 5



    Вы не можете начинать темы
    Вы не можете отвечать на сообщения
    Вы не можете редактировать свои сообщения
    Вы не можете удалять свои сообщения
    Вы не можете голосовать в опросах
    Вы не можете прикреплять файлы к сообщениям
    Вы не можете скачивать файлы