Эпидемия / Серии: 1-8 из 8 (Павел Костомаров) [2019, драма, фантастика, триллер, WEBRip 1080p] :: UZTOR.PW Лучший трекер в зоне TAS-IX!
Регистрация ·
Имя: Пароль:  
· Забыли пароль?
Уважаемые гости сайта! Добро Пожаловать на наш торрент трекер,где Вы можете бесплатно скачать любой Софт,Фильмы,Музыку и многое другое! А так же постоянно ведется набор модераторов и релизеров. Зарегистрируйтесь сейчас, чтобы получить доступ ко всем функциям. После регистрации или входа на сайт вы сможете создавать темы, отвечать на сообщения и скачивать файлы.

Навигация по Торрент раздачам и Форум и Стол заказов и Группы

 Эпидемия / Серии: 1-8 из 8 (Павел Костомаров) [2019, драма, фантастика, триллер, WEBRip 1080p]

Главная  Сериалы  Российские сериалы
Статистика раздачи
Нет
 
     
 
 
Автор Сообщение
  • -InVoKeR- ®
  • Не в сети
  • Автор темы

  • 5057
  • VIP пользователь

  • Пол: Мужской

  • Стаж: 1 год 4 месяца

  • Сообщений: 491

  •  Россия

  • Откуда: из Криптона

  • Провайдер: UzOnline UzOnline

  • Тарифный план: Unlim 4 (Мир: 4 Мбит/с, Tas-ix: 100Мбит/с)

  • Steam: 76561198442747843

  • Telegram: i_Invoker

  • Карма: 1118


  • Наличие запрета:

  • Награды: 22 (Подробнее)
    Admin (Количество: 1) Авторитет (Количество: 1) Активный релизер 1 (Количество: 1) Активный релизер 2 (Количество: 1) Активный сидер 1 (Количество: 1)
  • Создавать темы 29-Дек-2019 19:18

    Эпидемия-- Год выпуска: 2019
    Страна: Россия
    Жанр: драма, фантастика, триллер
    Продолжительность: 00:55:00
    Перевод: Не требуется-Режиссер: Павел Костомаров-В ролях: Кирилл Кяро, Виктория Исакова, Александр Робак, Марьяна Спивак, Юрий Кузнецов, Савелий Кудряшов, Аля Никулина, Наталья Земцова, Екатерина Сапрыкина, Вера Гурьева-Описание: Новый неизвестный вирус превращает Москву в город мёртвых. Электричества нет, деньги потеряли свою ценность, те, кто ещё не заражён, отчаянно сражаются за еду и бензин. Главный герой Сергей, его любимая и её сын-аутист живут за городом, где пока ещё безопасно. Но он не может бросить в беде бывшую жену с их сыном, хоть она и ненавидит его. Сергей едет в Москву и чудом вывозит из умирающей столицы женщину и ребёнка. В пути к ним присоединяются также отец героя и довольно наглые соседи с младенцем. Люди, которые в другой ситуации никогда не оказались бы под одной крышей, вынуждены забыть прежние обиды и отправиться в полное смертельных опасностей путешествие на крайний Север, к уединенному охотничьему домику, расположенному на необитаемом острове посреди озера.-Присутствует ненормативная лексика / +18-Качество: WEBRip 1080p
    Формат: MKV
    Видео: MPEG4 AVC Video, H264, 16:9, 1920x1080, 25 fps, ~5000 kbps, 0.096 bit/pixel
    Аудио: AC3 Dolby Digital, 48.0 kHz, 2/0 (L,R) ch, 192 kbps--

    MediaInfo

    General
    Unique ID : 186665572009889732232714248627433822740 (0x8C6E7B41BFC5E2D2BA30C7492CA0DA14)
    Complete name : D:\Epidemia 1080P\Epidemia.e01.2019.WEB-DL.(1080p).Getty.mkv
    Format : Matroska
    Format version : Version 4
    File size : 1.99 GiB
    Duration : 55 min 44 s
    Overall bit rate mode : Constant
    Overall bit rate : 5 122 kb/s
    Movie name : Epidemia.e01.2019.WEB-DL.(1080p).Getty
    Encoded date : UTC 2019-11-13 21:00:08
    Writing application : mkvmerge v7.8.0 ('River Man') 32bit built on Mar 27 2015 16:18:02
    Writing library : libebml v1.3.1 + libmatroska v1.4.2
    Video
    ID : 1
    Format : AVC
    Format/Info : Advanced Video Codec
    Format profile : Baseline@L4
    Format settings : 4 Ref Frames
    Format settings, CABAC : No
    Format settings, ReFrames : 4 frames
    Codec ID : V_MPEG4/ISO/AVC
    Duration : 55 min 44 s
    Bit rate mode : Constant
    Bit rate : 5 000 kb/s
    Width : 1 920 pixels
    Height : 1 080 pixels
    Display aspect ratio : 16:9
    Frame rate mode : Constant
    Frame rate : 25.000 FPS
    Standard : PAL
    Color space : YUV
    Chroma subsampling : 4:2:0
    Bit depth : 8 bits
    Scan type : Progressive
    Bits/(Pixel*Frame) : 0.096
    Stream size : 1.92 GiB (96%)
    Default : Yes
    Forced : No
    Color range : Limited
    Color primaries : BT.709
    Transfer characteristics : BT.709
    Matrix coefficients : BT.709
    Audio
    ID : 2
    Format : AC-3
    Format/Info : Audio Coding 3
    Commercial name : Dolby Digital
    Codec ID : A_AC3
    Duration : 55 min 44 s
    Bit rate mode : Constant
    Bit rate : 192 kb/s
    Channel(s) : 2 channels
    Channel layout : L R
    Sampling rate : 48.0 kHz
    Frame rate : 31.250 FPS (1536 SPF)
    Bit depth : 16 bits
    Compression mode : Lossy
    Stream size : 76.5 MiB (4%)
    Service kind : Complete Main
    Default : Yes
    Forced : No

    _________________
    Показать сообщения:    
    Главная  Сериалы  Российские сериалы

    Текущее время: 31-Мар 13:01

    Часовой пояс: UTC + 5



    Вы не можете начинать темы
    Вы не можете отвечать на сообщения
    Вы не можете редактировать свои сообщения
    Вы не можете удалять свои сообщения
    Вы не можете голосовать в опросах
    Вы не можете прикреплять файлы к сообщениям
    Вы не можете скачивать файлы