Zомбилэнд: Контрольный выстрел / Zombieland: Double Tap (Рубен Фляйшер / Ruben Fleischer) [2019, Ужасы, боевик, комедия, BDRip 1080р] iTunes :: UZTOR.PW Лучший трекер в зоне TAS-IX!
 
Уважаемые гости сайта! Добро Пожаловать на наш торрент трекер,где Вы можете бесплатно скачать любой Софт,Фильмы,Музыку и многое другое! А так же постоянно ведется набор модераторов и релизеров. Зарегистрируйтесь сейчас, чтобы получить доступ ко всем функциям. После регистрации или входа на сайт вы сможете создавать темы, отвечать на сообщения и скачивать файлы.

Навигация по Торрент раздачам и Форум и Стол заказов и Группы



 Zомбилэнд: Контрольный выстрел / Zombieland: Double Tap (Рубен Фляйшер / Ruben Fleischer) [2019, Ужасы, боевик, комедия, BDRip 1080р] iTunes

Главная  Кинофильмы  Зарубежные кинофильмы  HD
Статистика раздачи
Нет
 
     
 
 
Автор Сообщение
  • -InVoKeR- ®
  • Не в сети

    Автор темы

  • 5057
  • VIP пользователь

  • Пол: Мужской

  • Стаж: 1 год 7 месяцев

  • Сообщений: 578

  •  Узбекистан

  • Откуда: из Криптона

  • Провайдер: UzOnline UzOnline

  • Тарифный план: Unlim 10 Premium (Мир: 300 Мбит/с, Tas-ix: 300Мбит/с)

  • Steam: 76561198442747843

  • Telegram: i_Invoker

  • Карма: 1130


  • Нет нарушения:

  • Награды: 22 (Подробнее)
    Admin (Количество: 1) Авторитет (Количество: 1) Активный релизер 1 (Количество: 1) Активный релизер 2 (Количество: 1) Активный сидер 1 (Количество: 1)
  • Создавать темы 29-Дек-2019 13:27

    Zомбилэнд: Контрольный выстрел
    Zombieland: Double Tap
    --Год выпуска: 2019
    Страна: США
    Жанр: ужасы, боевик, комедия
    Продолжительность: 01:39:24
    Перевод: Дублированный | iTunes
    Субтитры: Русские (Full), английские-Режиссер: Рубен Фляйшер / Ruben Fleischer-В ролях: Джесси Айзенберг, Вуди Харрельсон, Эмма Стоун, Эбигейл Бреслин, Зои Дойч, Розарио Доусон, Эван Джогиа, Билл Мюррей, Дэн Эйкройд, Люк Уилсон-Описание: Беспощадная и бесстрашная четверка охотников на зомби продолжает свое путешествие в глубь страны. На этот раз им предстоит сразиться не только с новыми видами живых мертвецов, но и вступить в схватку с другими выжившими, которые настроены совсем не дружелюбно. Кроме того, в собственных рядах охотников намечается серьезный разлад.-Качество: BDRip 1080р
    Формат: MKV
    Видео: AVC, 1920x804, 12.7 Mbit/s, 23.976 fps
    Аудио: 48 kHz, AC3, 5.1, 384 Kbps | Дублированный | RUS
    Аудио: 48 kHz, AC3, 2.0, 160 Kbps | Дублированный | UKR
    Аудио: 48 kHz, AC3, 5.1, 640 Kbps | Оригинал | ENG--

    MediaInfo

    General
    Unique ID : 105455151541081379513659021648342916976 (0x4F55EC64E0F00E4FFABAEC0D90099F70)
    Complete name : F:Video111Zombieland.Double.Tap.2019.D.BDRip.1080p.seleZen.mkv
    Format : Matroska
    Format version : Version 4
    File size : 9.61 GiB
    Duration : 1 h 39 min
    Overall bit rate : 13.9 Mb/s
    Movie name : Zombieland Double Tap 2019 from селезень
    Encoded date : UTC 2019-12-26 19:40:17
    Writing application : mkvmerge v40.0.0 ('Old Town Road + Pony') 64-bit
    Writing library : libebml v1.3.9 + libmatroska v1.5.2
    Video
    ID : 1
    Format : AVC
    Format/Info : Advanced Video Codec
    Format profile : High@L4.1
    Format settings : CABAC / 5 Ref Frames
    Format settings, CABAC : Yes
    Format settings, Reference : 5 frames
    Codec ID : V_MPEG4/ISO/AVC
    Duration : 1 h 39 min
    Bit rate : 12.7 Mb/s
    Width : 1 920 pixels
    Height : 804 pixels
    Display aspect ratio : 2.40:1
    Frame rate mode : Constant
    Frame rate : 23.976 (24000/1001) FPS
    Color space : YUV
    Chroma subsampling : 4:2:0
    Bit depth : 8 bits
    Scan type : Progressive
    Bits/(Pixel*Frame) : 0.343
    Stream size : 8.78 GiB (91%)
    Writing library : x264 core 158 r2984+49 6932f4a t_mod_New [0-bit@all X86_64]
    Encoding settings : cabac=1 / ref=5 / deblock=1:-3:-3 / analyse=0x3:0x133 / me=umh / subme=10 / psy=1 / fade_compensate=0.00 / psy_rd=1.00:0.00 / mixed_ref=1 / me_range=32 / chroma_me=1 / trellis=2 / 8x8dct=1 / cqm=0 / deadzone=21,11 / fast_pskip=0 / chroma_qp_offset=-2 / threads=16 / lookahead_threads=4 / sliced_threads=0 / nr=0 / decimate=0 / interlaced=0 / bluray_compat=0 / constrained_intra=0 / fgo=0 / bframes=12 / b_pyramid=2 / b_adapt=2 / b_bias=0 / direct=3 / weightb=1 / open_gop=0 / weightp=2 / keyint=480 / keyint_min=24 / scenecut=40 / intra_refresh=0 / rc_lookahead=80 / rc=crf / mbtree=0 / crf=17.0000 / qcomp=0.60 / qpmin=0:0:0 / qpmax=69:69:69 / qpstep=4 / vbv_maxrate=62500 / vbv_bufsize=78125 / crf_max=0.0 / nal_hrd=none / filler=0 / ip_ratio=1.30 / pb_ratio=1.20 / aq=3:0.80 / aq-sensitivity=10.00 / aq-factor=1.00:1.00:1.00 / aq2=0 / aq3=0
    Language : English
    Default : Yes
    Forced : No
    Color range : Limited
    Color primaries : BT.709
    Transfer characteristics : BT.709
    Matrix coefficients : BT.709
    Audio #1
    ID : 2
    Format : AC-3
    Format/Info : Audio Coding 3
    Commercial name : Dolby Digital
    Codec ID : A_AC3
    Duration : 1 h 39 min
    Bit rate mode : Constant
    Bit rate : 384 kb/s
    Channel(s) : 6 channels
    Channel layout : L R C LFE Ls Rs
    Sampling rate : 48.0 kHz
    Frame rate : 31.250 FPS (1536 SPF)
    Bit depth : 16 bits
    Compression mode : Lossy
    Stream size : 272 MiB (3%)
    Title : iTunes
    Language : Russian
    Service kind : Complete Main
    Default : Yes
    Forced : Yes
    Audio #2
    ID : 3
    Format : AC-3
    Format/Info : Audio Coding 3
    Commercial name : Dolby Digital
    Codec ID : A_AC3
    Duration : 1 h 39 min
    Bit rate mode : Constant
    Bit rate : 160 kb/s
    Channel(s) : 2 channels
    Channel layout : L R
    Sampling rate : 48.0 kHz
    Frame rate : 31.250 FPS (1536 SPF)
    Bit depth : 16 bits
    Compression mode : Lossy
    Stream size : 113 MiB (1%)
    Title : iTunes
    Language : Ukrainian
    Service kind : Complete Main
    Default : No
    Forced : No
    Audio #3
    ID : 4
    Format : AC-3
    Format/Info : Audio Coding 3
    Commercial name : Dolby Digital
    Codec ID : A_AC3
    Duration : 1 h 39 min
    Bit rate mode : Constant
    Bit rate : 640 kb/s
    Channel(s) : 6 channels
    Channel layout : L R C LFE Ls Rs
    Sampling rate : 48.0 kHz
    Frame rate : 31.250 FPS (1536 SPF)
    Bit depth : 16 bits
    Compression mode : Lossy
    Stream size : 453 MiB (5%)
    Title : Original
    Language : English
    Service kind : Complete Main
    Default : No
    Forced : No
    Text #1
    ID : 5
    Format : UTF-8
    Codec ID : S_TEXT/UTF8
    Codec ID/Info : UTF-8 Plain Text
    Duration : 1 h 37 min
    Bit rate : 1 b/s
    Count of elements : 35
    Stream size : 1.42 KiB (0%)
    Title : Forced
    Language : Russian
    Default : Yes
    Forced : Yes
    Text #2
    ID : 6
    Format : UTF-8
    Codec ID : S_TEXT/UTF8
    Codec ID/Info : UTF-8 Plain Text
    Duration : 1 h 38 min
    Bit rate : 106 b/s
    Count of elements : 1736
    Stream size : 76.7 KiB (0%)
    Title : Full
    Language : Russian
    Default : No
    Forced : No
    Text #3
    ID : 7
    Format : UTF-8
    Codec ID : S_TEXT/UTF8
    Codec ID/Info : UTF-8 Plain Text
    Duration : 1 h 38 min
    Bit rate : 112 b/s
    Count of elements : 1467
    Stream size : 81.1 KiB (0%)
    Title : Full
    Language : Ukrainian
    Default : No
    Forced : No
    Text #4
    ID : 8
    Format : UTF-8
    Codec ID : S_TEXT/UTF8
    Codec ID/Info : UTF-8 Plain Text
    Duration : 1 h 38 min
    Bit rate : 138 b/s
    Count of elements : 1809
    Stream size : 100 KiB (0%)
    Title : Full v.2
    Language : Russian
    Default : No
    Forced : No
    Text #5
    ID : 9
    Format : UTF-8
    Codec ID : S_TEXT/UTF8
    Codec ID/Info : UTF-8 Plain Text
    Duration : 28 min 6 s
    Bit rate : 0 b/s
    Count of elements : 7
    Stream size : 157 Bytes (0%)
    Title : Forced
    Language : English
    Default : No
    Forced : No
    Text #6
    ID : 10
    Format : UTF-8
    Codec ID : S_TEXT/UTF8
    Codec ID/Info : UTF-8 Plain Text
    Duration : 1 h 38 min
    Bit rate : 83 b/s
    Count of elements : 1805
    Stream size : 60.2 KiB (0%)
    Title : Full
    Language : English
    Default : No
    Forced : No
    Menu
    00:00:00.000 : en:Chapter 1
    00:05:00.675 : en:Chapter 2
    00:11:08.001 : en:Chapter 3
    00:15:24.507 : en:Chapter 4
    00:21:16.192 : en:Chapter 5
    00:29:15.545 : en:Chapter 6
    00:36:55.422 : en:Chapter 7
    00:44:03.015 : en:Chapter 8
    00:50:12.968 : en:Chapter 9
    00:57:52.511 : en:Chapter 10
    01:03:51.870 : en:Chapter 11
    01:06:50.048 : en:Chapter 12
    01:10:12.125 : en:Chapter 13
    01:15:40.119 : en:Chapter 14
    01:23:45.312 : en:Chapter 15
    01:29:48.216 : en:Chapter 16

    _________________
    Показать сообщения:    
    Главная  Кинофильмы  Зарубежные кинофильмы  HD

    Текущее время: 15-Июл 10:59

    Часовой пояс: UTC + 5



    Вы не можете начинать темы
    Вы не можете отвечать на сообщения
    Вы не можете редактировать свои сообщения
    Вы не можете удалять свои сообщения
    Вы не можете голосовать в опросах
    Вы не можете прикреплять файлы к сообщениям
    Вы не можете скачивать файлы