Джокер / Joker (Тодд Филлипс / Todd Phillips) [2019, Триллер, драма, криминал, BDRip-HEVC 1080p 10bit] iTunes :: UZTOR.PW Лучший трекер в зоне TAS-IX!
Регистрация ·
Имя: Пароль:  
· Забыли пароль?
Уважаемые гости сайта! Добро Пожаловать на наш торрент трекер,где Вы можете бесплатно скачать любой Софт,Фильмы,Музыку и многое другое! А так же постоянно ведется набор модераторов и релизеров. Зарегистрируйтесь сейчас, чтобы получить доступ ко всем функциям. После регистрации или входа на сайт вы сможете создавать темы, отвечать на сообщения и скачивать файлы.

Навигация по Торрент раздачам и Форум и Стол заказов и Группы

 Джокер / Joker (Тодд Филлипс / Todd Phillips) [2019, Триллер, драма, криминал, BDRip-HEVC 1080p 10bit] iTunes

Главная  Кинофильмы  Кинофильмы (HEVC)  Новинки
Статистика раздачи
Нет
 
     
 
 
Автор Сообщение
  • -InVoKeR- ®
  • В сети
  • Автор темы

  • 5057
  • VIP пользователь

  • Пол: Мужской

  • Стаж: 1 год 4 месяца

  • Сообщений: 509

  •  Россия

  • Откуда: из Криптона

  • Провайдер: UzOnline UzOnline

  • Тарифный план: Unlim 4 (Мир: 4 Мбит/с, Tas-ix: 100Мбит/с)

  • Steam: 76561198442747843

  • Telegram: i_Invoker

  • Карма: 1118


  • Наличие запрета:

  • Награды: 22 (Подробнее)
    Admin (Количество: 1) Авторитет (Количество: 1) Активный релизер 1 (Количество: 1) Активный релизер 2 (Количество: 1) Активный сидер 1 (Количество: 1)
  • Создавать темы 28-Дек-2019 23:19

    Джокер / Joker--Год выпуска: 2019
    Страна: Канада, США
    Жанр: Триллер, драма, криминал
    Продолжительность: 02:01:49
    Перевод: Дублированный | [iTunes]
    Субтитры: русские, английские-Режиссер: Тодд Филлипс / Todd Phillips-В ролях: Хоакин Феникс, Роберт Де Ниро, Зази Битц, Джоли Чань, Марк Мэрон, Фрэнсис Конрой, Мэри Кейт Малат, Ши Уигхэм, Брайан Коллен, Бретт Каллен-Описание: Готэм, начало 1980-х годов. Комик Артур Флек живет с больной матерью, которая с детства учит его «ходить с улыбкой». Пытаясь нести в мир хорошее и дарить людям радость, Артур сталкивается с человеческой жестокостью и постепенно приходит к выводу, что этот мир получит от него не добрую улыбку, а ухмылку злодея Джокера.-Качество: BDRip-HEVC 1080p
    Формат: MKV
    Видео: 1920x1040 (1.85:1), 23,976 fps, x265 ~1 951 kb/s
    Аудио 1: 48 kHz, AC-3, 6 ch, ~384 kb/s avg | Дубляж
    Аудио 2: 48 kHz, HE-AAC / LC, 8ch, ~297 kb/s avg | Оригинал--

    MI

    Format : Matroska
    Format version : Version 4
    File size : 2.24 GiB
    Duration : 2 h 1 min
    Overall bit rate : 2 635 kb/s
    Movie name : Joker.2019.1080p.10bit.HEVC | UzTor.PW / Joker
    Description : Edited by -Invoker- for UzTor.PW
    Encoded date : UTC 2019-12-27 17:24:24
    Writing application : mkvmerge v40.0.0 ('Old Town Road + Pony') 64-bit
    Writing library : libebml v1.3.9 + libmatroska v1.5.2
    Copyright : UzTor.PW
    Cover : Yes
    Attachments : cover
    ARTIST : Todd Phillips
    Url : http://uztor.pw/
    Video
    ID : 4
    Format : HEVC
    Format/Info : High Efficiency Video Coding
    Format profile : Main 10@L4@Main
    Codec ID : V_MPEGH/ISO/HEVC
    Duration : 2 h 1 min
    Bit rate : 1 951 kb/s
    Width : 1 920 pixels
    Height : 1 040 pixels
    Display aspect ratio : 1.85:1
    Frame rate mode : Constant
    Frame rate : 23.976 (24000/1001) FPS
    Color space : YUV
    Chroma subsampling : 4:2:0
    Bit depth : 10 bits
    Bits/(Pixel*Frame) : 0.041
    Stream size : 1.66 GiB (74%)
    Title : Joker.2019.1080p.10bit.HEVC
    Default : Yes
    Forced : No
    Audio #1
    ID : 1
    Format : AC-3
    Format/Info : Audio Coding 3
    Commercial name : Dolby Digital
    Codec ID : A_AC3
    Duration : 2 h 1 min
    Bit rate mode : Constant
    Bit rate : 384 kb/s
    Channel(s) : 6 channels
    Channel layout : L R C LFE Ls Rs
    Sampling rate : 48.0 kHz
    Frame rate : 31.250 FPS (1536 SPF)
    Bit depth : 16 bits
    Compression mode : Lossy
    Stream size : 335 MiB (15%)
    Title : iTunes ALLTOR.ME
    Language : Russian
    Service kind : Complete Main
    Default : Yes
    Forced : Yes
    Audio #2
    ID : 5
    Format : AAC LC SBR
    Format/Info : Advanced Audio Codec Low Complexity with Spectral Band Replication
    Commercial name : HE-AAC
    Format settings : Explicit
    Codec ID : A_AAC-2
    Duration : 2 h 1 min
    Bit rate : 297 kb/s
    Channel(s) : 8 channels
    Channel layout : C L R Ls Rs Lb Rb LFE
    Sampling rate : 48.0 kHz
    Frame rate : 23.438 FPS (2048 SPF)
    Compression mode : Lossy
    Delay relative to video : 31 ms
    Stream size : 258 MiB (11%)
    Title : ENG
    Language : English
    Default : No
    Forced : No
    Text #1
    ID : 2
    Format : UTF-8
    Codec ID : S_TEXT/UTF8
    Codec ID/Info : UTF-8 Plain Text
    Duration : 1 h 54 min
    Bit rate : 5 b/s
    Count of elements : 72
    Stream size : 4.41 KiB (0%)
    Title : RUS | Forced
    Language : Russian
    Default : Yes
    Forced : Yes
    Text #2
    ID : 3
    Format : UTF-8
    Codec ID : S_TEXT/UTF8
    Codec ID/Info : UTF-8 Plain Text
    Duration : 1 h 58 min
    Bit rate : 82 b/s
    Count of elements : 1279
    Stream size : 71.8 KiB (0%)
    Title : RUS | FULL
    Language : Russian
    Default : No
    Forced : No
    Text #3
    ID : 6
    Format : UTF-8
    Codec ID : S_TEXT/UTF8
    Codec ID/Info : UTF-8 Plain Text
    Duration : 1 h 58 min
    Bit rate : 45 b/s
    Count of elements : 1424
    Stream size : 39.0 KiB (0%)
    Title : English-SRT
    Language : English
    Default : No
    Forced : No
    Text #4
    ID : 7
    Format : UTF-8
    Codec ID : S_TEXT/UTF8
    Codec ID/Info : UTF-8 Plain Text
    Duration : 1 h 58 min
    Bit rate : 55 b/s
    Count of elements : 1735
    Stream size : 47.9 KiB (0%)
    Title : English-SDH-SRT
    Language : English
    Default : No
    Forced : No
    Menu
    00:00:00.000 : en:Chapter 01
    00:10:28.794 : en:Chapter 02
    00:21:01.301 : en:Chapter 03
    00:28:44.973 : en:Chapter 04
    00:38:14.500 : en:Chapter 05
    00:46:21.570 : en:Chapter 06
    00:56:19.292 : en:Chapter 07
    01:04:41.168 : en:Chapter 08
    01:15:41.745 : en:Chapter 09
    01:26:16.045 : en:Chapter 10
    01:37:02.608 : en:Chapter 11
    01:45:50.385 : en:Chapter 12
    01:55:44.646 : en:Chapter 13

    _________________
    Показать сообщения:    
    Главная  Кинофильмы  Кинофильмы (HEVC)  Новинки

    Текущее время: 06-Апр 17:50

    Часовой пояс: UTC + 5



    Вы не можете начинать темы
    Вы не можете отвечать на сообщения
    Вы не можете редактировать свои сообщения
    Вы не можете удалять свои сообщения
    Вы не можете голосовать в опросах
    Вы не можете прикреплять файлы к сообщениям
    Вы не можете скачивать файлы