Мастера Меча Онлайн: Алисизация / Sword Art Online: Alicization (Манабу Оно) [TV-3] [24 из 24] [2018, Приключения, фэнтези, романтика, драма, WEBRip-HEVC 1080p] DUB (StudioBand), MVO (Kansai, AniLibria), DVO (AniDUB) :: UZTOR.PW Лучший трекер в зоне TAS-IX!
 
Уважаемые гости сайта! Добро Пожаловать на наш торрент трекер,где Вы можете бесплатно скачать любой Софт,Фильмы,Музыку и многое другое! А так же постоянно ведется набор модераторов и релизеров. Зарегистрируйтесь сейчас, чтобы получить доступ ко всем функциям. После регистрации или входа на сайт вы сможете создавать темы, отвечать на сообщения и скачивать файлы.

Навигация по Торрент раздачам и Форум и Стол заказов и Группы



 Мастера Меча Онлайн: Алисизация / Sword Art Online: Alicization (Манабу Оно) [TV-3] [24 из 24] [2018, Приключения, фэнтези, романтика, драма, WEBRip-HEVC 1080p] DUB (StudioBand), MVO (Kansai, AniLibria), DVO (AniDUB)

Главная  Аниме  Сериалы  Аниме Сериалы (HD)
Статистика раздачи
Нет
 
     
 
 
 
Автор Сообщение
  • Создавать темы 11-Дек-2019 18:31

    -- Год выпуска: 2018
    Страна: Япония
    Жанр: Приключения, фантастика, романтика, драма
    Продолжительность: ТВ (24 эп.), 25 мин.
    Выпуск: c 07.10.2018 по 31.03.2019-Перевод
    Дубляж | StudioBand [Wakanim]
    Любительский многоголосый (Kansai) (серии 01-18)
    Любительский многоголосый (AniLibria)
    Любительский двухголосный (AniDUB)-Режиссер: Манабу Оно
    Автор оригинала: Кавахара Рэки-Студия: -Описание
    Кирито просыпается в огромном фантастическом виртуальном мире. Потеряв память, он начинает искать подсказки и встречает молодого парня Юджио у подножия черного дерева. И хотя Юджио — персонаж из виртуального мира (NPC), у него есть способность чувствовать и выражать человеческие чувства. Пытаясь найти способ выйти из системы, Кирито вдруг вспоминает, как бежал с Юджио на эту же самую гору, где они находятся. Но как это вообще возможно? Это воспоминание не должно было и существовать. Кроме того, в этом воспоминании была молодая девушка с длинными светлыми волосами, имя которой — Алиса. Что бы ни случилось, это имя нельзя забыть.-Информационные ссылки: AniDB || World Art || MAL-Качество: WEBRip-HEVC 1080p
    Формат: mkv
    Видео: x265, 1920x1080, 1609 kbps, 23.976 fps
    Аудио RUS: AC3, 48000Hz, 192 Kbps, 2ch | StudioBand
    Аудио RUS: AC3, 48000Hz, 192 Kbps, 2ch | Kansai
    Аудио RUS: AC3, 48000Hz, 192 Kbps, 2ch | AniLibria
    Аудио RUS: AC3, 48000Hz, 192 Kbps, 2ch | AniDUB
    Аудио JAP: AC3, 48000Hz, 192 Kbps, 2ch | Original
    Субтитры: русские (встроенные полный перевод, ASS) - SovetRomantica-

    MediaInfo

    General
    Unique ID : 31393388209530382220724260442111003540 (0x179E258A413A5699E5ADF8B2AF94CB94)
    Complete name : D:\Sword Art Online Alicization [x265]\Sword Art Online Alicization 01 [x265].mkv
    Format : Matroska
    Format version : Version 4
    File size : 877 MiB
    Duration : 47 min 40 s
    Overall bit rate : 2 573 kb/s
    Encoded date : UTC 2019-04-21 05:48:12
    Writing application : mkvmerge v33.0.0 ('A Little Bit of Madness') 64-bit
    Writing library : libebml v1.3.7 + libmatroska v1.5.0
    Attachments : OpenSans-Semibold.ttf
    Video
    ID : 1
    Format : HEVC
    Format/Info : High Efficiency Video Coding
    Format profile : Format Range@L4@Main
    Codec ID : V_MPEGH/ISO/HEVC
    Duration : 47 min 40 s
    Bit rate : 1 609 kb/s
    Width : 1 920 pixels
    Height : 1 080 pixels
    Display aspect ratio : 16:9
    Frame rate mode : Constant
    Frame rate : 23.976 (24000/1001) FPS
    Original frame rate : 23.976 (23976/1000) FPS
    Color space : YUV
    Chroma subsampling : 4:2:0
    Bit depth : 12 bits
    Bits/(Pixel*Frame) : 0.032
    Stream size : 549 MiB (63%)
    Writing library : x265 2.8+15-d693a5aa5541:[Windows][MSVC 1914][64 bit] 12bit
    Encoding settings : cpuid=1111039 / frame-threads=4 / numa-pools=16 / wpp / no-pmode / no-pme / no-psnr / no-ssim / log-level=2 / input-csp=1 / input-res=1920x1080 / interlace=0 / total-frames=68573 / level-idc=0 / high-tier=1 / uhd-bd=0 / ref=3 / no-allow-non-conformance / no-repeat-headers / annexb / no-aud / no-hrd / info / hash=0 / no-temporal-layers / no-open-gop / min-keyint=23 / keyint=250 / gop-lookahead=0 / bframes=4 / b-adapt=2 / b-pyramid / bframe-bias=0 / rc-lookahead=20 / lookahead-slices=6 / scenecut=40 / radl=0 / no-intra-refresh / ctu=64 / min-cu-size=8 / no-rect / no-amp / max-tu-size=32 / tu-inter-depth=1 / tu-intra-depth=1 / limit-tu=0 / rdoq-level=0 / dynamic-rd=0.00 / no-ssim-rd / signhide / no-tskip / nr-intra=0 / nr-inter=0 / no-constrained-intra / strong-intra-smoothing / max-merge=2 / limit-refs=3 / no-limit-modes / me=1 / subme=2 / merange=57 / temporal-mvp / weightp / no-weightb / no-analyze-src-pics / deblock=0:0 / sao / no-sao-non-deblock / rd=3 / no-early-skip / rskip / no-fast-intra / no-tskip-fast / no-cu-lossless / no-b-intra / no-splitrd-skip / rdpenalty=0 / psy-rd=2.00 / psy-rdoq=0.00 / no-rd-refine / no-lossless / cbqpoffs=0 / crqpoffs=0 / rc=crf / crf=22.0 / qcomp=0.60 / qpstep=4 / stats-write=0 / stats-read=0 / ipratio=1.40 / pbratio=1.30 / aq-mode=0 / aq-strength=1.00 / no-cutree / zone-count=0 / no-strict-cbr / qg-size=64 / rc-grain / qpmax=69 / qpmin=0 / no-const-vbv / sar=0 / overscan=0 / videoformat=5 / range=0 / colorprim=2 / transfer=2 / colormatrix=2 / chromaloc=0 / display-window=0 / max-cll=0,0 / min-luma=0 / max-luma=4095 / log2-max-poc-lsb=8 / vui-timing-info / vui-hrd-info / slices=1 / no-opt-qp-pps / no-opt-ref-list-length-pps / no-multi-pass-opt-rps / scenecut-bias=0.05 / no-opt-cu-delta-qp / no-aq-motion / no-hdr / no-hdr-opt / no-dhdr10-opt / no-idr-recovery-sei / analysis-reuse-level=5 / scale-factor=0 / refine-intra=0 / refine-inter=0 / refine-mv=0 / no-limit-sao / ctu-info=0 / no-lowpass-dct / refine-mv-type=0 / copy-pic=1 / max-ausize-factor=1.0 / no-dynamic-refine / no-single-sei
    Language : Japanese
    Default : Yes
    Forced : No
    Audio #1
    ID : 2
    Format : AC-3
    Format/Info : Audio Coding 3
    Commercial name : Dolby Digital
    Codec ID : A_AC3
    Duration : 47 min 40 s
    Bit rate mode : Constant
    Bit rate : 192 kb/s
    Channel(s) : 2 channels
    Channel layout : L R
    Sampling rate : 48.0 kHz
    Frame rate : 31.250 FPS (1536 SPF)
    Bit depth : 16 bits
    Compression mode : Lossy
    Stream size : 65.5 MiB (7%)
    Language : Russian
    Service kind : Complete Main
    Default : Yes
    Forced : No
    Audio #2
    ID : 3
    Format : AC-3
    Format/Info : Audio Coding 3
    Commercial name : Dolby Digital
    Codec ID : A_AC3
    Duration : 47 min 40 s
    Bit rate mode : Constant
    Bit rate : 192 kb/s
    Channel(s) : 2 channels
    Channel layout : L R
    Sampling rate : 48.0 kHz
    Frame rate : 31.250 FPS (1536 SPF)
    Bit depth : 16 bits
    Compression mode : Lossy
    Stream size : 65.5 MiB (7%)
    Language : Russian
    Service kind : Complete Main
    Default : No
    Forced : No
    Audio #3
    ID : 4
    Format : AC-3
    Format/Info : Audio Coding 3
    Commercial name : Dolby Digital
    Codec ID : A_AC3
    Duration : 47 min 40 s
    Bit rate mode : Constant
    Bit rate : 192 kb/s
    Channel(s) : 2 channels
    Channel layout : L R
    Sampling rate : 48.0 kHz
    Frame rate : 31.250 FPS (1536 SPF)
    Bit depth : 16 bits
    Compression mode : Lossy
    Stream size : 65.5 MiB (7%)
    Language : Russian
    Service kind : Complete Main
    Default : No
    Forced : No
    Audio #4
    ID : 5
    Format : AC-3
    Format/Info : Audio Coding 3
    Commercial name : Dolby Digital
    Codec ID : A_AC3
    Duration : 47 min 40 s
    Bit rate mode : Constant
    Bit rate : 192 kb/s
    Channel(s) : 2 channels
    Channel layout : L R
    Sampling rate : 48.0 kHz
    Frame rate : 31.250 FPS (1536 SPF)
    Bit depth : 16 bits
    Compression mode : Lossy
    Stream size : 65.5 MiB (7%)
    Language : Russian
    Service kind : Complete Main
    Default : No
    Forced : No
    Audio #5
    ID : 6
    Format : AC-3
    Format/Info : Audio Coding 3
    Commercial name : Dolby Digital
    Codec ID : A_AC3
    Duration : 47 min 40 s
    Bit rate mode : Constant
    Bit rate : 192 kb/s
    Channel(s) : 2 channels
    Channel layout : L R
    Sampling rate : 48.0 kHz
    Frame rate : 31.250 FPS (1536 SPF)
    Bit depth : 16 bits
    Compression mode : Lossy
    Stream size : 65.5 MiB (7%)
    Language : Japanese
    Service kind : Complete Main
    Default : No
    Forced : No
    Text #1
    ID : 7
    Format : ASS
    Codec ID : S_TEXT/ASS
    Codec ID/Info : Advanced Sub Station Alpha
    Duration : 47 min 31 s
    Bit rate : 3 b/s
    Count of elements : 18
    Compression mode : Lossless
    Stream size : 1.25 KiB (0%)
    Language : Russian
    Default : Yes
    Forced : No
    Text #2
    ID : 8
    Format : ASS
    Codec ID : S_TEXT/ASS
    Codec ID/Info : Advanced Sub Station Alpha
    Duration : 47 min 31 s
    Bit rate : 135 b/s
    Count of elements : 621
    Compression mode : Lossless
    Stream size : 47.0 KiB (0%)
    Language : Russian
    Default : No
    Forced : No
    Text #3
    ID : 9
    Format : ASS
    Codec ID : S_TEXT/ASS
    Codec ID/Info : Advanced Sub Station Alpha
    Duration : 47 min 22 s
    Bit rate : 139 b/s
    Count of elements : 668
    Compression mode : Lossless
    Stream size : 48.4 KiB (0%)
    Language : Russian
    Default : No
    Forced : No

    Скриншоты


    _________________
    Показать сообщения:    
    Главная  Аниме  Сериалы  Аниме Сериалы (HD)

    Текущее время: 30-Окт 15:41

    Часовой пояс: UTC + 5



    Вы не можете начинать темы
    Вы не можете отвечать на сообщения
    Вы не можете редактировать свои сообщения
    Вы не можете удалять свои сообщения
    Вы не можете голосовать в опросах
    Вы не можете прикреплять файлы к сообщениям
    Вы не можете скачивать файлы