Мастера меча онлайн: Порядковый ранг / Sword Art Online The Movie: Ordinal Scale (Ито Томохико) (Фильм) [2017, Приключения, фэнтези, романтика, драма, BDRip-HEVC 1080p] DUB (StudioBand) :: UZTOR.PW Лучший трекер в зоне TAS-IX!
 
Уважаемые гости сайта! Добро Пожаловать на наш торрент трекер,где Вы можете бесплатно скачать любой Софт,Фильмы,Музыку и многое другое! А так же постоянно ведется набор модераторов и релизеров. Зарегистрируйтесь сейчас, чтобы получить доступ ко всем функциям. После регистрации или входа на сайт вы сможете создавать темы, отвечать на сообщения и скачивать файлы.

Навигация по Торрент раздачам и Форум и Стол заказов и Группы



 Мастера меча онлайн: Порядковый ранг / Sword Art Online The Movie: Ordinal Scale (Ито Томохико) (Фильм) [2017, Приключения, фэнтези, романтика, драма, BDRip-HEVC 1080p] DUB (StudioBand)

Главная  Аниме  Манга и OVA  Артбуки и Полнометражки
Статистика раздачи
Нет
 
     
 
 
 
Автор Сообщение
  • Создавать темы 10-Дек-2019 16:53

    Мастера меча онлайн: Порядковый ранг / Sword Art Online The Movie: Ordinal Scale--
    Год выпуска: 2017
    Страна: Япония
    Студия: A-1 Pictures
    Жанр: приключения, фэнтези, романтика, драма
    Количество эпизодов: 1
    Продолжительность: 02:00:12-Переводы: Любительский многоголосый [StudioBand]-Режиссер: Ито Томохико-В ролях: Ёсицугу Мацуока, Харука Томацу, Ито Канаэ, Аяна Такэтацу, Миюки Савасиро, Аяхи Такагаки, Рина Хидака, Синъя Такахаси, Хироки Ясумото, Соитиро Хоси-О фильме: 2026 год, на смену «Амусферы» приходит «Augma» — устройство расширенной реальности, которая вместо функции «полного погружения», использует дополненную реальность, что делает процесс использования устройства безопаснее и удобнее. Благодаря этому новое устройство расширенной реальности получило большую популярность, а вместе с ней и «Ordinal Scale» — ARMMORPG, разработанная специально для «Augma», особенностью которой является OS — игровая функция, при которой все игроки получают ранг, основанный на их порядковом номере. Как и ожидалось, Кирито с друзьями начинают играть в «Ordinal Scale», но вскоре они узнают, что «Порядковый ранг» — это вовсе не веселье и игры...- -Дополнительная Информация:
    Сценарий: Рэки Кавахара, Алекс Фон Дэвид
    Продюсер: Синъитиро Касивада, Кадзума Мики, Ёсукэ Футами
    Оператор: Такэси Хироока, Мицуми Усуда
    Композитор: Юки Кадзиура
    Художник: Такаюки Нагасима, Юсукэ Такэда
    Монтаж: Сигэру Нисияма-Возраст: 16+ (зрителям, достигшим 16 лет)-Дата мировой премьеры: 18 февраля 2017-Качество: BDRip-HEVC 1080p
    Формат: MKV
    Видео: HEVC, 1920x1080, 1420 kbps, 23.976 fps
    Аудио#1: (Rus(int)): AAC, 228 kbps, 48,0 KHz, 2 ch | [StudioBand]
    Аудио#2: (Japanese): AAC, 106 kbps, 44,1 KHz, 2 ch | [Original]
    Субтитры: русские (встроенные полный перевод, ASS)--

    MediaInfo

    General
    Unique ID : 4398957751186138559698786153700780568 (0x34F355CB2B50A08CBE9B71348E7EA18)
    Complete name : D:\Sword Art Online Ordinal Scale [BDRip-HEVC 1080p]\Sword Art Online Ordinal Scale.mkv
    Format : Matroska
    Format version : Version 4
    File size : 1.48 GiB
    Duration : 2 h 0 min
    Overall bit rate : 1 760 kb/s
    Movie name : [bonkai77].Sword.Art.Online.The.Movie.Ordinal.Scale.[BD.1080p.Dual.Audio.x265]
    Encoded date : UTC 2018-08-13 04:19:00
    Writing application : mkvmerge v25.0.0 ('Prog Noir') 64-bit
    Writing library : libebml v1.3.6 + libmatroska v1.4.9
    Attachments : Abel-Regular.ttf / AUBREY1__.TTF / comicbd.ttf
    Video
    ID : 1
    Format : HEVC
    Format/Info : High Efficiency Video Coding
    Format profile : Main 10@L5@Main
    Codec ID : V_MPEGH/ISO/HEVC
    Duration : 2 h 0 min
    Bit rate : 1 420 kb/s
    Width : 1 920 pixels
    Height : 1 080 pixels
    Display aspect ratio : 16:9
    Frame rate mode : Constant
    Frame rate : 23.976 (24000/1001) FPS
    Color space : YUV
    Chroma subsampling : 4:2:0
    Bit depth : 10 bits
    Bits/(Pixel*Frame) : 0.029
    Stream size : 1.19 GiB (81%)
    Title : [bonkai77]
    Writing library : x265 2.5+14-2718cb5dd67f:[Windows][GCC 7.1.0][64 bit] 10bit
    Encoding settings : cpuid=1050111 / frame-threads=3 / numa-pools=8 / wpp / no-pmode / no-pme / no-psnr / no-ssim / log-level=2 / input-csp=1 / input-res=1920x1080 / interlace=0 / total-frames=172932 / level-idc=0 / high-tier=1 / uhd-bd=0 / ref=6 / no-allow-non-conformance / no-repeat-headers / annexb / no-aud / no-hrd / info / hash=0 / no-temporal-layers / open-gop / min-keyint=23 / keyint=250 / bframes=8 / b-adapt=2 / b-pyramid / bframe-bias=0 / rc-lookahead=60 / lookahead-slices=6 / scenecut=40 / no-intra-refresh / ctu=32 / min-cu-size=8 / rect / no-amp / max-tu-size=16 / tu-inter-depth=2 / tu-intra-depth=2 / limit-tu=4 / rdoq-level=2 / dynamic-rd=0.00 / no-ssim-rd / signhide / no-tskip / nr-intra=0 / nr-inter=0 / no-constrained-intra / no-strong-intra-smoothing / max-merge=3 / limit-refs=3 / limit-modes / me=3 / subme=5 / merange=57 / temporal-mvp / weightp / weightb / no-analyze-src-pics / no-deblock / no-sao / no-sao-non-deblock / rd=5 / no-early-skip / rskip / no-fast-intra / no-tskip-fast / no-cu-lossless / b-intra / no-splitrd-skip / rdpenalty=0 / psy-rd=0.80 / psy-rdoq=1.00 / no-rd-refine / analysis-reuse-mode=0 / no-lossless / cbqpoffs=0 / crqpoffs=0 / rc=crf / crf=23.0 / qcomp=0.60 / qpstep=4 / stats-write=0 / stats-read=0 / ipratio=1.40 / pbratio=1.30 / aq-mode=2 / aq-strength=1.00 / cutree / zone-count=0 / no-strict-cbr / qg-size=32 / no-rc-grain / qpmax=69 / qpmin=0 / no-const-vbv / sar=0 / overscan=0 / videoformat=5 / range=0 / colorprim=2 / transfer=2 / colormatrix=2 / chromaloc=0 / display-window=0 / max-cll=0,0 / min-luma=0 / max-luma=1023 / log2-max-poc-lsb=8 / vui-timing-info / vui-hrd-info / slices=1 / opt-qp-pps / opt-ref-list-length-pps / no-multi-pass-opt-rps / scenecut-bias=0.05 / no-opt-cu-delta-qp / no-aq-motion / no-hdr / no-hdr-opt / no-dhdr10-opt / analysis-reuse-level=5 / scale-factor=0 / refine-intra=0 / refine-inter=0 / refine-mv=0 / no-limit-sao / ctu-info=0
    Default : Yes
    Forced : No
    Audio #1
    ID : 2
    Format : AAC LC
    Format/Info : Advanced Audio Codec Low Complexity
    Codec ID : A_AAC-2
    Duration : 2 h 0 min
    Bit rate : 229 kb/s
    Channel(s) : 2 channels
    Channel layout : L R
    Sampling rate : 48.0 kHz
    Frame rate : 46.875 FPS (1024 SPF)
    Compression mode : Lossy
    Stream size : 197 MiB (13%)
    Title : StudioBand
    Language : Russian
    Default : Yes
    Forced : No
    Audio #2
    ID : 3
    Format : AAC LC
    Format/Info : Advanced Audio Codec Low Complexity
    Codec ID : A_AAC-2
    Duration : 2 h 0 min
    Bit rate : 106 kb/s
    Channel(s) : 2 channels
    Channel layout : L R
    Sampling rate : 48.0 kHz
    Frame rate : 46.875 FPS (1024 SPF)
    Compression mode : Lossy
    Delay relative to video : 21 ms
    Stream size : 90.8 MiB (6%)
    Title : Original
    Language : Japanese
    Default : No
    Forced : No
    Text #1
    ID : 4
    Format : ASS
    Codec ID : S_TEXT/ASS
    Codec ID/Info : Advanced Sub Station Alpha
    Duration : 1 h 56 min
    Bit rate : 585 b/s
    Count of elements : 2183
    Compression mode : Lossless
    Stream size : 500 KiB (0%)
    Title : Надписи
    Language : Russian
    Default : Yes
    Forced : No
    Text #2
    ID : 5
    Format : ASS
    Codec ID : S_TEXT/ASS
    Codec ID/Info : Advanced Sub Station Alpha
    Duration : 1 h 59 min
    Bit rate : 681 b/s
    Count of elements : 3472
    Compression mode : Lossless
    Stream size : 596 KiB (0%)
    Title : Полные субтитры
    Language : Russian
    Default : No
    Forced : No
    Menu
    00:00:00.000 : en:Chapter 01
    00:04:06.246 : en:Chapter 02
    00:11:04.664 : en:Chapter 03
    00:19:37.050 : en:Chapter 04
    00:25:59.307 : en:Chapter 05
    00:32:03.004 : en:Chapter 06
    00:38:33.728 : en:Chapter 07
    00:42:36.887 : en:Chapter 08
    00:45:19.842 : en:Chapter 09
    00:51:59.991 : en:Chapter 10
    00:55:47.344 : en:Chapter 11
    01:02:52.518 : en:Chapter 12
    01:09:04.723 : en:Chapter 13
    01:19:41.401 : en:Chapter 14
    01:23:58.366 : en:Chapter 15
    01:26:41.029 : en:Chapter 16
    01:33:49.665 : en:Chapter 17
    01:39:29.964 : en:Chapter 18
    01:46:47.234 : en:Chapter 19
    01:50:46.681 : en:Chapter 20
    01:54:33.533 : en:Chapter 21
    01:59:13.646 : en:Chapter 22

    _________________
    Показать сообщения:    
    Главная  Аниме  Манга и OVA  Артбуки и Полнометражки

    Текущее время: 31-Окт 00:33

    Часовой пояс: UTC + 5



    Вы не можете начинать темы
    Вы не можете отвечать на сообщения
    Вы не можете редактировать свои сообщения
    Вы не можете удалять свои сообщения
    Вы не можете голосовать в опросах
    Вы не можете прикреплять файлы к сообщениям
    Вы не можете скачивать файлы