Мастера меча онлайн / Sword Art Online (Ито Томохико) [TV-2] [25 из 25] [2014, приключения, фэнтези, романтика, драма, BDRip-HEVC 1080p] DUB (СВ-Дубль), MVO (Kansai) :: UZTOR.PW Лучший трекер в зоне TAS-IX!
 
Уважаемые гости сайта! Добро Пожаловать на наш торрент трекер,где Вы можете бесплатно скачать любой Софт,Фильмы,Музыку и многое другое! А так же постоянно ведется набор модераторов и релизеров. Зарегистрируйтесь сейчас, чтобы получить доступ ко всем функциям. После регистрации или входа на сайт вы сможете создавать темы, отвечать на сообщения и скачивать файлы.

Навигация по Торрент раздачам и Форум и Стол заказов и Группы



 Мастера меча онлайн / Sword Art Online (Ито Томохико) [TV-2] [25 из 25] [2014, приключения, фэнтези, романтика, драма, BDRip-HEVC 1080p] DUB (СВ-Дубль), MVO (Kansai)

Главная  Аниме  Сериалы  Аниме Сериалы (HD)
Статистика раздачи
Нет
 
     
 
 
 
Автор Сообщение
  • Создавать темы 09-Дек-2019 19:02

    Мастера меча онлайн / Sword Art Online--
    Год выпуска: 2014
    Страна: Япония
    Студия: A-1 Pictures
    Жанр: приключения, фэнтези, романтика, драма
    Количество эпизодов: 25
    Продолжительность: 00:24:00-Переводы:
    Дублированный [СВ-Дубль]
    Любительский многоголосый
    [Kansai]-Режиссер: Ито Томохико-В ролях: Ёсицугу Мацуока, Харука Томацу, Ито Канаэ, Аяна Такэтацу, Миюки Савасиро, Аяхи Такагаки, Рина Хидака, Синъя Такахаси, Хироки Ясумото, Соитиро Хоси-О фильме: Несмотря на происшествие с Sword Art Online, игры с виртуальным погружением не были запрещены. А спустя некоторое время вновь стали набирать популярность. И вот, когда уже, казалось бы, все улеглось, VRMMO снова преподносит сюрприз. В Gun Gale Online появляется загадочный игрок, который выстрелом в игре способен убить человека в «реале». Об этом Кадзуто узнает от Сэйдзиро Кикуоки, работника «виртуального отдела» МВД. Кикуока просит Кирито, как опытного обитателя виртуальных миров, помочь ему разобраться с этим делом.- -Дополнительная Информация:
    Сценарий: Рэки Кавахара, Алекс Фон Дэвид
    Продюсер: Синъитиро Касивада, Кадзума Мики, Ёсукэ Футами
    Оператор: Такэси Хироока, Мицуми Усуда
    Композитор: Юки Кадзиура
    Художник: Такаюки Нагасима, Юсукэ Такэда
    Монтаж: Сигэру Нисияма-Возраст: 16+ (зрителям, достигшим 16 лет)-Дата мировой премьеры: 7 июля 2014-Качество: BDRip-HEVC 1080p
    Формат: MKV
    Видео: HEVC, 1920x1080, 984 kb/s, 23.976 fps
    Аудио#1: (Rus(int)): AC-3, 192 kbps, 48,0 KHz, 2 ch | [СВ-Дубль]
    Аудио#1: (Rus(int)): AC-3, 192 kbps, 48,0 KHz, 2 ch | [Kansai]
    Аудио#2: (Japanese): AAC, 108 kbps, 48,0 KHz, 2 ch | [Original]
    Субтитры: русские (встроенные полный перевод, ASS)--

    MediaInfo

    Format                      : Matroska
    Format version              : Version 4
    File size                   : 251 MiB
    Duration                    : 23 min 42 s
    Overall bit rate            : 1 479 kb/s
    Movie name                  : [bonkai77].Sword.Art.Online.II.Episode.01.The.World.of.Guns.1080p.Dual.Audio.Bluray
    Encoded date                : UTC 2019-06-17 23:36:11
    Writing application         : mkvmerge v34.0.0 ('Sight and Seen') 64-bit
    Writing library             : libebml v1.3.7 + libmatroska v1.5.0
    Video
    ID                          : 4
    Format                      : HEVC
    Format/Info                 : High Efficiency Video Coding
    Format profile              : Main 10@L5@Main
    Codec ID                    : V_MPEGH/ISO/HEVC
    Duration                    : 23 min 42 s
    Bit rate                    : 984 kb/s
    Width                       : 1 920 pixels
    Height                      : 1 080 pixels
    Display aspect ratio        : 16:9
    Frame rate mode             : Constant
    Frame rate                  : 23.976 (24000/1001) FPS
    Color space                 : YUV
    Chroma subsampling          : 4:2:0
    Bit depth                   : 10 bits
    Bits/(Pixel*Frame)          : 0.020
    Stream size                 : 167 MiB (67%)
    Title                       : [bonkai77]
    Writing library             : x265 2.5+14-2718cb5dd67f:[Windows][GCC 7.1.0][64 bit] 10bit
    Encoding settings           : cpuid=1050111 / frame-threads=3 / numa-pools=8 / wpp / no-pmode / no-pme / no-psnr / no-ssim / log-level=2 / input-csp=1 / input-res=1920x1080 / interlace=0 / total-frames=34094 / level-idc=0 / high-tier=1 / uhd-bd=0 / ref=6 / no-allow-non-conformance / no-repeat-headers / annexb / no-aud / no-hrd / info / hash=0 / no-temporal-layers / open-gop / min-keyint=23 / keyint=250 / bframes=8 / b-adapt=2 / b-pyramid / bframe-bias=0 / rc-lookahead=60 / lookahead-slices=6 / scenecut=40 / no-intra-refresh / ctu=32 / min-cu-size=8 / rect / no-amp / max-tu-size=16 / tu-inter-depth=3 / tu-intra-depth=3 / limit-tu=4 / rdoq-level=2 / dynamic-rd=0.00 / no-ssim-rd / signhide / no-tskip / nr-intra=0 / nr-inter=0 / no-constrained-intra / no-strong-intra-smoothing / max-merge=4 / limit-refs=3 / limit-modes / me=3 / subme=5 / merange=57 / temporal-mvp / weightp / weightb / no-analyze-src-pics / no-deblock / no-sao / no-sao-non-deblock / rd=5 / no-early-skip / rskip / no-fast-intra / no-tskip-fast / no-cu-lossless / b-intra / no-splitrd-skip / rdpenalty=0 / psy-rd=0.80 / psy-rdoq=2.00 / no-rd-refine / analysis-reuse-mode=0 / no-lossless / cbqpoffs=0 / crqpoffs=0 / rc=crf / crf=22.0 / qcomp=0.60 / qpstep=4 / stats-write=0 / stats-read=0 / ipratio=1.40 / pbratio=1.30 / aq-mode=2 / aq-strength=1.00 / cutree / zone-count=0 / no-strict-cbr / qg-size=32 / no-rc-grain / qpmax=69 / qpmin=0 / no-const-vbv / sar=0 / overscan=0 / videoformat=5 / range=0 / colorprim=2 / transfer=2 / colormatrix=2 / chromaloc=0 / display-window=0 / max-cll=0,0 / min-luma=0 / max-luma=1023 / log2-max-poc-lsb=8 / vui-timing-info / vui-hrd-info / slices=1 / opt-qp-pps / opt-ref-list-length-pps / no-multi-pass-opt-rps / scenecut-bias=0.05 / no-opt-cu-delta-qp / no-aq-motion / no-hdr / no-hdr-opt / no-dhdr10-opt / analysis-reuse-level=5 / scale-factor=0 / refine-intra=0 / refine-inter=0 / refine-mv=0 / no-limit-sao / ctu-info=0
    Default                     : Yes
    Forced                      : No
    Audio #1
    ID                          : 1
    Format                      : AC-3
    Format/Info                 : Audio Coding 3
    Commercial name             : Dolby Digital
    Codec ID                    : A_AC3
    Duration                    : 23 min 41 s
    Bit rate mode               : Constant
    Bit rate                    : 192 kb/s
    Channel(s)                  : 2 channels
    Channel layout              : L R
    Sampling rate               : 48.0 kHz
    Frame rate                  : 31.250 FPS (1536 SPF)
    Bit depth                   : 16 bits
    Compression mode            : Lossy
    Stream size                 : 32.5 MiB (13%)
    Language                    : Russian
    Service kind                : Complete Main
    Default                     : Yes
    Forced                      : No
    Audio #2
    ID                          : 3
    Format                      : AC-3
    Format/Info                 : Audio Coding 3
    Commercial name             : Dolby Digital
    Codec ID                    : A_AC3
    Duration                    : 23 min 41 s
    Bit rate mode               : Constant
    Bit rate                    : 192 kb/s
    Channel(s)                  : 2 channels
    Channel layout              : L R
    Sampling rate               : 48.0 kHz
    Frame rate                  : 31.250 FPS (1536 SPF)
    Bit depth                   : 16 bits
    Compression mode            : Lossy
    Stream size                 : 32.5 MiB (13%)
    Language                    : Russian
    Service kind                : Complete Main
    Default                     : No
    Forced                      : No
    Audio #3
    ID                          : 5
    Format                      : AAC LC
    Format/Info                 : Advanced Audio Codec Low Complexity
    Codec ID                    : A_AAC-2
    Duration                    : 23 min 41 s
    Bit rate                    : 108 kb/s
    Channel(s)                  : 2 channels
    Channel layout              : L R
    Sampling rate               : 48.0 kHz
    Frame rate                  : 46.875 FPS (1024 SPF)
    Compression mode            : Lossy
    Delay relative to video     : 21 ms
    Stream size                 : 18.3 MiB (7%)
    Language                    : Japanese
    Default                     : No
    Forced                      : No
    Text
    ID                          : 2
    Format                      : ASS
    Codec ID                    : S_TEXT/ASS
    Codec ID/Info               : Advanced Sub Station Alpha
    Duration                    : 23 min 30 s
    Bit rate                    : 232 b/s
    Count of elements           : 462
    Compression mode            : Lossless
    Stream size                 : 40.1 KiB (0%)
    Language                    : Russian
    Default                     : Yes
    Forced                      : No
    Menu
    00:00:00.000                : en:Prologue
    00:03:21.951                : en:Episode
    00:22:04.865                : en:Ending
    00:23:34.913                : en:Next Ep Title

    _________________
    Показать сообщения:    
    Главная  Аниме  Сериалы  Аниме Сериалы (HD)

    Текущее время: 26-Окт 14:58

    Часовой пояс: UTC + 5



    Вы не можете начинать темы
    Вы не можете отвечать на сообщения
    Вы не можете редактировать свои сообщения
    Вы не можете удалять свои сообщения
    Вы не можете голосовать в опросах
    Вы не можете прикреплять файлы к сообщениям
    Вы не можете скачивать файлы