Шаблон оформления раздач в разделе Аниме Сериалы :: UZTOR.PW Лучший трекер в зоне TAS-IX!
Регистрация ·
Имя: Пароль:  
· Забыли пароль?
Уважаемые гости сайта! Добро Пожаловать на наш торрент трекер,где Вы можете бесплатно скачать любой Софт,Фильмы,Музыку и многое другое! А так же постоянно ведется набор модераторов и релизеров. Зарегистрируйтесь сейчас, чтобы получить доступ ко всем функциям. После регистрации или входа на сайт вы сможете создавать темы, отвечать на сообщения и скачивать файлы.

Навигация по Торрент раздачам и Форум

До нового обновления Торрент-Трекер осталось

 Шаблон оформления раздач в разделе Аниме Сериалы

Главная  Аниме  Помощь по разделу (Аниме)
 
Автор Сообщение
  • Abercrombie ®
  • Не в сети
  • 5397
  • Пол: Мужской

  • Стаж: 6 месяцев 4 дня

  • Сообщений: 14

  • Откуда: Ташкент

  • Провайдер: FiberNet FiberNet

  • Тарифный план: Universal-2

  • Telegram: Persik_life

  • Карма: 52


  • Наличие запрета:

  • Награды: Нет
  • Создавать темы 02-Дек-2019 00:35

    Шаблон

    Заголовок темы

    Название на русском языке / Оригинальное название на латинице / иной вариант названия (Режиссер) [тип аниме] [номера серий, содержащихся в раздаче] [информация о встроенных и внешних дорожках аудио и субтитров] [год, жанр(ы), качество] [разрешения видео]

    Шаблон темы

    Название на русском языке / Оригинальное название на латинице / иной вариант названия
    или Логотип названия если имеется
    Постер аниме. Размер не более 500х700 и должен находится справа.
    Производство(Страна): Страна
    Жанр: жанр(ы)
    Тип: Movie / TV / OVA / ONA / Special / Extra (Кол-во эпизодов), * мин.
    Выпуск: день/месяц/год
    Режиссёр: Имя/Фамилия
    Автор оригинала: Имя/Фамилия
    Студия: Студия, которая создавало данное аниме
    Перевод: дублированный/двуголосый/одноголосый/многолосый/субтитры
    Описание: краткое описание сюжета
    World-Art Rating: смотрим на сайте // Не обязательно
    Myanimelist Rating: смотрим на сайте // Не обязательно
    Скриншоты с реальным размером, залитый в Галерею(Фотохостинг), которая присутствует на данном сайте в виде эскизов
    Подробные тех. данные:
    Качество: (DVDRip/TVRip/CamRip/TeleSync/DVDScr/HDRip/BDRip/HDTVRip)
    Формат: (MKV/AVI/MPG/и т.д.)
    Видео: Видео кодек (DivX/XviD/MPEG2/H264/и т.д.), разрешение, частота кадров, битрейт
    Аудио: Аудио кодек (AAC/AC3/MP3/и т.д.), частота, битрейт - поток (язык потока)
    Список указанный ниже должен быть под спойлером как показано:

    Список эпизодов

    Желательно, но не обязательно

    MediaInfo

    Пример

    Заголовок

    Хранитель Священного Духа / Seirei no Moribito / 精霊の守り人(Камияма Кэндзи)[TB-1](26-26)[Rus.int](2007, приключения, фэнтези, BDRip)[720p]

    Тело

    Хранитель Священного Духа / Moribito: Guardian of the Spirit /
    Seirei no Moribito / 精霊の守り人
    -- Производство: Япония
    Жанр: приключения, фэнтези
    Тип: ТВ (26 эп.), 25 мин.
    Выпуск: c 07.04.2007 по 29.09.2007
    Режиссёр: Камияма Кэндзи
    Автор оригинала: Уэхаси Нахоко
    Студия: --Озвучка: Eladiel
    Тайминг и работа со звуком: LiaNdrY, Dark Man--World_Art.ru: 8.6 / 10
    MyAnimelist.net: 8.21 / 10--Описание:Женщина–воин, копьеносец Барса, странствует по городам в поисках работы. Барса – профессиональный телохранитель. Забота об экипировке приводит ее в Його, благополучную навсего починить сломанное копье, но неожиданно оказывается «при исполнении» — на мосту случается несчастный случай. Во время следования императорского кортежа опрокидывается повозка со вторым принцем Його, Его Высочеством Тягуму. Барса бросается в воду за мальчиком, не предполагая, что судьба накрепко свяжет ее со спасенным ребёнком…--Скриншоты:--

    Технические данные:

    Качество: BDRip
    Контейнер: mkv
    Видео: x264; 1280х720; 23.976 fps; 2 002 kb/s
    Аудио #1: Ac-3; 48.0 khz; 6 channels; 640 kb/s
    Аудио #2: Ac-3; 48.0 khz; 6 channels; 640 kb/s

    MediaInfo

    General
    Unique ID                   : 223767796185233247029013122439510947649 (0xA8581C2420BE496392E2419DFD56F741)
    Complete name               : D:\Seirei no Moribito_[Eladiel]_[BDRip_720p]\Seirei_no_Moribito_[01_of_26]_[ru_jp]_[Eladiel]_[BDRip_720p].mkv
    Format                      : Matroska
    Format version              : Version 2
    File size                   : 599 MiB
    Duration                    : 25 min 0 s
    Overall bit rate            : 3 349 kb/s
    Encoded date                : UTC 2011-11-20 17:42:55
    Writing application         : mkvmerge v4.2.0 ('No Talking') сборка от Aug  1 2010 22:50:30
    Writing library             : libebml v1.0.0 + libmatroska v1.0.0
    Video
    ID                          : 1
    Format                      : AVC
    Format/Info                 : Advanced Video Codec
    Format profile              : High 10@L4.1
    Format settings             : CABAC / 6 Ref Frames
    Format settings, CABAC      : Yes
    Format settings, ReFrames   : 6 frames
    Muxing mode                 : Header stripping
    Codec ID                    : V_MPEG4/ISO/AVC
    Duration                    : 25 min 0 s
    Bit rate                    : 2 002 kb/s
    Width                       : 1 280 pixels
    Height                      : 720 pixels
    Display aspect ratio        : 16:9
    Frame rate mode             : Constant
    Frame rate                  : 23.976 (24000/1001) FPS
    Color space                 : YUV
    Chroma subsampling          : 4:2:0
    Bit depth                   : 10 bits
    Scan type                   : Progressive
    Bits/(Pixel*Frame)          : 0.091
    Stream size                 : 358 MiB (60%)
    Title                       : [Raws-4U] Encode Squad @Sergik,Vasil,Cerepa
    Writing library             : x264 core 116 r2037 f8ebd4a
    Encoding settings           : cabac=1 / ref=6 / deblock=1:-2:-1 / analyse=0x3:0x113 / me=umh / subme=9 / psy=1 / psy_rd=1.00:0.00 / mixed_ref=1 / me_range=24 / chroma_me=1 / trellis=2 / 8x8dct=1 / cqm=0 / deadzone=21,11 / fast_pskip=0 / chroma_qp_offset=-2 / threads=12 / sliced_threads=0 / nr=0 / decimate=0 / interlaced=0 / bluray_compat=0 / constrained_intra=0 / bframes=9 / b_pyramid=2 / b_adapt=2 / b_bias=0 / direct=3 / weightb=1 / open_gop=0 / weightp=2 / keyint=250 / keyint_min=23 / scenecut=40 / intra_refresh=0 / rc_lookahead=40 / rc=crf / mbtree=1 / crf=16.0 / qcomp=0.60 / qpmin=8 / qpmax=48 / qpstep=4 / ip_ratio=1.40 / aq=1:1.00
    Language                    : Japanese
    Default                     : Yes
    Forced                      : No
    Audio #1
    ID                          : 2
    Format                      : AC-3
    Format/Info                 : Audio Coding 3
    Muxing mode                 : Header stripping
    Codec ID                    : A_AC3
    Duration                    : 25 min 0 s
    Bit rate mode               : Constant
    Bit rate                    : 640 kb/s
    Channel(s)                  : 6 channels
    Channel positions           : Front: L C R, Side: L R, LFE
    Sampling rate               : 48.0 kHz
    Frame rate                  : 31.250 FPS (1536 SPF)
    Bit depth                   : 16 bits
    Compression mode            : Lossy
    Stream size                 : 114 MiB (19%)
    Title                       : Eladiel
    Language                    : Russian
    Service kind                : Complete Main
    Default                     : Yes
    Forced                      : No
    Audio #2
    ID                          : 3
    Format                      : AC-3
    Format/Info                 : Audio Coding 3
    Muxing mode                 : Header stripping
    Codec ID                    : A_AC3
    Duration                    : 25 min 0 s
    Bit rate mode               : Constant
    Bit rate                    : 640 kb/s
    Channel(s)                  : 6 channels
    Channel positions           : Front: L C R, Side: L R, LFE
    Sampling rate               : 48.0 kHz
    Frame rate                  : 31.250 FPS (1536 SPF)
    Bit depth                   : 16 bits
    Compression mode            : Lossy
    Stream size                 : 114 MiB (19%)
    Title                       : Original
    Language                    : Japanese
    Service kind                : Complete Main
    Default                     : No
    Forced                      : No
    Text #1
    ID                          : 4
    Format                      : ASS
    Codec ID                    : S_TEXT/ASS
    Codec ID/Info               : Advanced Sub Station Alpha
    Compression mode            : Lossless
    Title                       : Надписи
    Language                    : Russian
    Default                     : Yes
    Forced                      : No
    Text #2
    ID                          : 5
    Format                      : ASS
    Codec ID                    : S_TEXT/ASS
    Codec ID/Info               : Advanced Sub Station Alpha
    Compression mode            : Lossless
    Title                       : Сабы
    Language                    : Russian
    Default                     : No
    Forced                      : N

    Релиз подготовлен R.G. Anime

    Показать сообщения:    
    Главная  Аниме  Помощь по разделу (Аниме)

    Текущее время: 09-Дек 12:43

    Часовой пояс: UTC + 5



    Вы не можете начинать темы
    Вы не можете отвечать на сообщения
    Вы не можете редактировать свои сообщения
    Вы не можете удалять свои сообщения
    Вы не можете голосовать в опросах
    Вы не можете прикреплять файлы к сообщениям
    Вы не можете скачивать файлы