Доктор Стрэндж / Doctor Strange (Скотт Дерриксон / Scott Derrickson) [2016, Фантастика, фэнтези, боевик, приключения, BDRip-AVC] :: UZTOR.PW Лучший трекер в зоне TAS-IX!
Регистрация ·
Имя: Пароль:  
· Забыли пароль?
Уважаемые гости сайта! Добро Пожаловать на наш торрент трекер,где Вы можете бесплатно скачать любой Софт,Фильмы,Музыку и многое другое! А так же постоянно ведется набор модераторов и релизеров. Зарегистрируйтесь сейчас, чтобы получить доступ ко всем функциям. После регистрации или входа на сайт вы сможете создавать темы, отвечать на сообщения и скачивать файлы.

Навигация по Торрент раздачам и Форум

До нового обновления Торрент-Трекер осталось

 Доктор Стрэндж / Doctor Strange (Скотт Дерриксон / Scott Derrickson) [2016, Фантастика, фэнтези, боевик, приключения, BDRip-AVC]

Главная  Кинофильмы  Зарубежные кинофильмы  HD-AVC
Статистика раздачи
Буду качать: [ 1 ]
 
     
 
 
Автор Сообщение
  • -InVoKeR- ®
  • Не в сети
  • 5057
  • VIP пользователь

  • Пол: Мужской

  • Стаж: 1 год

  • Сообщений: 422

  • Откуда: uztor.pw

  • Провайдер: UzOnline UzOnline

  • Тарифный план: Unlim 4 (Мир: 4 Мбит/с, Tas-ix: 100Мбит/с)

  • Steam: 76561198442747843

  • Telegram: i_Invoker

  • Карма: 1128


  • Наличие запрета:

  • Награды: 22 (Подробнее)
    Admin (Количество: 1) Авторитет (Количество: 1) Активный релизер 1 (Количество: 1) Активный релизер 2 (Количество: 1) Активный сидер 1 (Количество: 1)
  • Создавать темы 30-Ноя-2019 23:46

    Доктор Стрэндж / Doctor Strange-- Год выпуска: 2016
    Производство: США / Marvel Studios Inc., Walt Disney Studios Motion Pictures.
    Жанр: фантастика, фэнтези, боевик, приключения
    Продолжительность: 01:55:15
    Перевод: Дубляж [Blu-ray CEE]
    Субтитры: русские (форс), русские (х2)
    Навигация по главам: есть-Режиссер: Скотт Дерриксон / Scott Derrickson-В ролях: Бенедикт Камбербэтч (Dr. Stephen Strange), Тильда Суинтон (The Ancient One), Мадс Миккельсен (Kaecilius), Чиветель Эджиофор (Mordo), Рэйчел МакАдамс (Christine Palmer), Бенедикт Вонг (Wong), Майкл Стулбарг (Dr. Nicodemus West), Бенджамин Брэтт (Jonathan Pangborn), Скотт Эдкинс (Lucian / Strong Zealot), Зара Питиан (Brunette Zealot), Алаа Умузун (Tall Zealot), Катрина Дерден (Blonde Zealot)-О фильме: Страшная автокатастрофа поставила крест на карьере успешного нейрохирурга Доктора Стрэнджа. Отчаявшись, он отправляется в путешествие в поисках исцеления и открывает в себе невероятные способности к трансформации пространства и времени. Теперь он - связующее звено между параллельными измерениями, а его миссия - защищать жителей Земли и противодействовать Злу, какое бы обличие оно ни принимало.- -Качество: BDRip-AVC
    Формат: MKV
    Видео: AVC, 984x412 (2.40:1), 1368 kbps, 23,976 fps, 0.141 bpp
    Аудио: AC3 / 5.1 / 48 kHz / 448 kbps / 16 bit | RUS--

    MediaInfo

    General
    Unique ID : 176875001300427261009003214645811300595 (0x8510E2DA306CFD03852A8E94944D48F3)
    Complete name : D:\Марвел Коллекция.Marvel Collection\Doktor.Strendzh.2016.RUS.BDRip-AVC.mkv
    Format : Matroska
    Format version : Version 4
    File size : 1.46 GiB
    Duration : 1 h 55 min
    Overall bit rate : 1 817 kb/s
    Movie name : Doctor Strange (2016)
    Encoded date : UTC 2017-03-01 04:21:40
    Writing application : mkvmerge v5.9.0 ('On The Loose') built on Dec 15 2012 16:39:58
    Writing library : libebml v1.3.0 + libmatroska v1.4.0
    Video
    ID : 1
    Format : AVC
    Format/Info : Advanced Video Codec
    Format profile : High@L4.1
    Format settings : CABAC / 12 Ref Frames
    Format settings, CABAC : Yes
    Format settings, Reference : 12 frames
    Codec ID : V_MPEG4/ISO/AVC
    Duration : 1 h 55 min
    Bit rate : 1 368 kb/s
    Width : 984 pixels
    Height : 412 pixels
    Display aspect ratio : 2.40:1
    Frame rate mode : Constant
    Frame rate : 23.976 FPS
    Color space : YUV
    Chroma subsampling : 4:2:0
    Bit depth : 8 bits
    Scan type : Progressive
    Bits/(Pixel*Frame) : 0.141
    Stream size : 1.07 GiB (73%)
    Title : potroks
    Writing library : x264 core 146 r2538 121396c
    Encoding settings : cabac=1 / ref=12 / deblock=1:-2:-2 / analyse=0x3:0x113 / me=umh / subme=11 / psy=1 / psy_rd=1.00:0.05 / mixed_ref=1 / me_range=56 / chroma_me=1 / trellis=2 / 8x8dct=1 / cqm=0 / deadzone=21,11 / fast_pskip=0 / chroma_qp_offset=-3 / threads=9 / lookahead_threads=2 / sliced_threads=0 / nr=0 / decimate=0 / interlaced=0 / bluray_compat=0 / constrained_intra=0 / bframes=13 / b_pyramid=2 / b_adapt=2 / b_bias=0 / direct=3 / weightb=1 / open_gop=0 / weightp=2 / keyint=240 / keyint_min=23 / scenecut=40 / intra_refresh=0 / rc_lookahead=60 / rc=2pass / mbtree=0 / bitrate=1368 / ratetol=1.0 / qcomp=0.70 / qpmin=0 / qpmax=69 / qpstep=4 / cplxblur=20.0 / qblur=0.5 / vbv_maxrate=14000 / vbv_bufsize=14000 / nal_hrd=none / filler=0 / ip_ratio=1.40 / pb_ratio=1.30 / aq=1:0.80
    Language : English
    Default : Yes
    Forced : No
    Audio
    ID : 2
    Format : AC-3
    Format/Info : Audio Coding 3
    Commercial name : Dolby Digital
    Codec ID : A_AC3
    Duration : 1 h 55 min
    Bit rate mode : Constant
    Bit rate : 448 kb/s
    Channel(s) : 6 channels
    Channel layout : L R C LFE Ls Rs
    Sampling rate : 48.0 kHz
    Frame rate : 31.250 FPS (1536 SPF)
    Bit depth : 16 bits
    Compression mode : Lossy
    Stream size : 369 MiB (25%)
    Title : Dub | DD 5.1 @ 448 kbps - Blu-ray CEE
    Language : Russian
    Service kind : Complete Main
    Default : Yes
    Forced : No
    Text #1
    ID : 3
    Format : UTF-8
    Codec ID : S_TEXT/UTF8
    Codec ID/Info : UTF-8 Plain Text
    Title : Forced
    Language : Russian
    Default : Yes
    Forced : No
    Text #2
    ID : 4
    Format : UTF-8
    Codec ID : S_TEXT/UTF8
    Codec ID/Info : UTF-8 Plain Text
    Title : iTunes
    Language : Russian
    Default : No
    Forced : No
    Text #3
    ID : 5
    Format : UTF-8
    Codec ID : S_TEXT/UTF8
    Codec ID/Info : UTF-8 Plain Text
    Language : Russian
    Default : No
    Forced : No
    Menu
    00:00:00.000 : en:00:00:00.000
    00:04:34.566 : en:00:04:34.566
    00:10:16.825 : en:00:10:16.825
    00:18:32.153 : en:00:18:32.153
    00:24:37.017 : en:00:24:37.017
    00:31:40.482 : en:00:31:40.482
    00:38:33.811 : en:00:38:33.811
    00:43:16.135 : en:00:43:16.135
    00:48:24.527 : en:00:48:24.527
    00:55:34.498 : en:00:55:34.498
    01:05:04.359 : en:01:05:04.359
    01:12:38.437 : en:01:12:38.437
    01:22:14.346 : en:01:22:14.346
    01:28:28.637 : en:01:28:28.637
    01:35:00.904 : en:01:35:00.904
    01:45:06.509 : en:01:45:06.509

    _________________
    Показать сообщения:    
    Главная  Кинофильмы  Зарубежные кинофильмы  HD-AVC

    Текущее время: 10-Дек 18:48

    Часовой пояс: UTC + 5



    Вы не можете начинать темы
    Вы не можете отвечать на сообщения
    Вы не можете редактировать свои сообщения
    Вы не можете удалять свои сообщения
    Вы не можете голосовать в опросах
    Вы не можете прикреплять файлы к сообщениям
    Вы не можете скачивать файлы