Чёрная Пантера / Black Panther (Райан Куглер / Ryan Coogler) [2018, Фантастика, боевик, приключения, BDRip-AVC] :: UZTOR.PW Лучший трекер в зоне TAS-IX!
Регистрация ·
Имя: Пароль:  
· Забыли пароль?
Уважаемые гости сайта! Добро Пожаловать на наш торрент трекер,где Вы можете бесплатно скачать любой Софт,Фильмы,Музыку и многое другое! А так же постоянно ведется набор модераторов и релизеров. Зарегистрируйтесь сейчас, чтобы получить доступ ко всем функциям. После регистрации или входа на сайт вы сможете создавать темы, отвечать на сообщения и скачивать файлы.

Навигация по Торрент раздачам и Форум

До нового обновления Торрент-Трекер осталось

 Чёрная Пантера / Black Panther (Райан Куглер / Ryan Coogler) [2018, Фантастика, боевик, приключения, BDRip-AVC]

Главная  Кинофильмы  Зарубежные кинофильмы  HD-AVC
Статистика раздачи
Нет
 
     
 
 
Автор Сообщение
  • -InVoKeR- ®
  • Не в сети
  • 5057
  • VIP пользователь

  • Пол: Мужской

  • Стаж: 1 год

  • Сообщений: 422

  • Откуда: uztor.pw

  • Провайдер: UzOnline UzOnline

  • Тарифный план: Unlim 4 (Мир: 4 Мбит/с, Tas-ix: 100Мбит/с)

  • Steam: 76561198442747843

  • Telegram: i_Invoker

  • Карма: 1128


  • Наличие запрета:

  • Награды: 22 (Подробнее)
    Admin (Количество: 1) Авторитет (Количество: 1) Активный релизер 1 (Количество: 1) Активный релизер 2 (Количество: 1) Активный сидер 1 (Количество: 1)
  • Создавать темы 30-Ноя-2019 16:53

    Чёрная Пантера / Black Panther-- Год выпуска: 2018
    Производство: США / Marvel Studios Inc., Walt Disney Pictures
    Жанр: фантастика, боевик, приключения
    Продолжительность: 02:14:44
    Перевод: Дубляж
    Субтитры: русские (форс.), русские (Blu-ray 3D EUR), русские (Focs)
    Навигация по главам: есть-Режиссер: Райан Куглер / Ryan Coogler-В ролях: Чедвик Боузман (T'Challa / Black Panther), Майкл Б. Джордан (Erik Killmonger), Лупита Нионго (Nakia), Данай Джекесай Гурира (Okoye), Мартин Фриман (Everett K. Ross), Дэниэл Калуя (W'Kabi), Летишиа Райт (Shuri), Уинстон Дьюк (M'Baku), Стерлинг К. Браун (N'Jobu), Анджела Бассетт (Ramonda), Форест Уитакер (Zuri), Энди Серкис (Ulysses Klaue)-О фильме: С первого взгляда можно решить, что Ваканда - обычная территория дикой Африки, но это не так. Здесь, в недрах пустынных земель, скрываются залежи уникального металла, способного поглощать вибрацию. Многие пытались добраться до него, разоряя всё на своём пути и принося смерть аборигенам, но каждый раз таинственный дух саванны - Чёрная Пантера - вставал на защиту угнетённых.-Качество: BDRip-AVC
    Формат: MKV
    Видео: AVC, 956x400 (2.40:1), 1358 kbps, 23,976 fps
    Аудио: AC3 / 5.1 / 48 kHz / 448 kbps / 16 bit--

    MediaInfo

    General
    Unique ID : 225412592073283077595066209935974983749 (0xA994E2D6E5F80BF19AF9BC9328EFE845)
    Complete name : D:\Марвел Коллекция.Marvel Collection\Chernaya.Pantera.2018.RUS.BDRip-AVC.mkv
    Format : Matroska
    Format version : Version 4
    File size : 1.70 GiB
    Duration : 2 h 14 min
    Overall bit rate : 1 808 kb/s
    Movie name : Black Panther (2018)
    Encoded date : UTC 2018-07-01 05:19:15
    Writing application : mkvmerge v5.9.0 ('On The Loose') built on Dec 15 2012 16:39:58
    Writing library : libebml v1.3.0 + libmatroska v1.4.0
    Video
    ID : 1
    Format : AVC
    Format/Info : Advanced Video Codec
    Format profile : High@L4.1
    Format settings : CABAC / 12 Ref Frames
    Format settings, CABAC : Yes
    Format settings, Reference : 12 frames
    Codec ID : V_MPEG4/ISO/AVC
    Duration : 2 h 14 min
    Bit rate : 1 358 kb/s
    Width : 956 pixels
    Height : 400 pixels
    Display aspect ratio : 2.40:1
    Frame rate mode : Constant
    Frame rate : 23.976 (24000/1001) FPS
    Color space : YUV
    Chroma subsampling : 4:2:0
    Bit depth : 8 bits
    Scan type : Progressive
    Bits/(Pixel*Frame) : 0.148
    Stream size : 1.24 GiB (73%)
    Title : potroks
    Writing library : x264 core 155 r2901M 7d0ff22
    Encoding settings : cabac=1 / ref=12 / deblock=1:-2:-2 / analyse=0x3:0x133 / me=umh / subme=11 / psy=1 / psy_rd=1.00:0.05 / mixed_ref=1 / me_range=48 / chroma_me=1 / trellis=2 / 8x8dct=1 / cqm=0 / deadzone=21,11 / fast_pskip=0 / chroma_qp_offset=-3 / threads=9 / lookahead_threads=2 / sliced_threads=0 / nr=0 / decimate=0 / interlaced=0 / bluray_compat=0 / constrained_intra=0 / bframes=12 / b_pyramid=2 / b_adapt=2 / b_bias=0 / direct=3 / weightb=1 / open_gop=0 / weightp=2 / keyint=240 / keyint_min=23 / scenecut=40 / intra_refresh=0 / rc_lookahead=100 / rc=2pass / mbtree=0 / bitrate=1358 / ratetol=1.0 / qcomp=0.70 / qpmin=0 / qpmax=69 / qpstep=4 / cplxblur=20.0 / qblur=0.5 / vbv_maxrate=50000 / vbv_bufsize=50000 / nal_hrd=none / filler=0 / ip_ratio=1.40 / pb_ratio=1.30 / aq=2:0.80
    Language : English
    Default : Yes
    Forced : No
    Audio
    ID : 2
    Format : AC-3
    Format/Info : Audio Coding 3
    Commercial name : Dolby Digital
    Codec ID : A_AC3
    Duration : 2 h 14 min
    Bit rate mode : Constant
    Bit rate : 448 kb/s
    Channel(s) : 6 channels
    Channel layout : L R C LFE Ls Rs
    Sampling rate : 48.0 kHz
    Frame rate : 31.250 FPS (1536 SPF)
    Bit depth : 16 bits
    Compression mode : Lossy
    Stream size : 431 MiB (25%)
    Title : Dub | DD 5.1 @ 448 kbps - Blu-ray CEE
    Language : Russian
    Service kind : Complete Main
    Default : Yes
    Forced : No
    Text #1
    ID : 3
    Format : UTF-8
    Codec ID : S_TEXT/UTF8
    Codec ID/Info : UTF-8 Plain Text
    Title : Forced
    Language : Russian
    Default : Yes
    Forced : No
    Text #2
    ID : 4
    Format : UTF-8
    Codec ID : S_TEXT/UTF8
    Codec ID/Info : UTF-8 Plain Text
    Title : Blu-ray 3D EUR
    Language : Russian
    Default : No
    Forced : No
    Text #3
    ID : 5
    Format : UTF-8
    Codec ID : S_TEXT/UTF8
    Codec ID/Info : UTF-8 Plain Text
    Title : Focs
    Language : Russian
    Default : No
    Forced : No
    Menu
    00:00:00.000 : :00:00:00.000
    00:06:56.291 : :00:06:56.291
    00:12:02.805 : :00:12:02.805
    00:19:12.360 : :00:19:12.360
    00:28:32.961 : :00:28:32.961
    00:33:11.698 : :00:33:11.698
    00:40:57.497 : :00:40:57.497
    00:48:34.036 : :00:48:34.036
    00:53:46.098 : :00:53:46.098
    01:01:57.339 : :01:01:57.339
    01:08:33.026 : :01:08:33.026
    01:16:46.769 : :01:16:46.769
    01:22:24.022 : :01:22:24.022
    01:31:21.434 : :01:31:21.434
    01:41:15.361 : :01:41:15.361
    01:50:56.483 : :01:50:56.483
    01:59:16.941 : :01:59:16.941
    02:02:43.648 : :02:02:43.648

    _________________
    Показать сообщения:    
    Главная  Кинофильмы  Зарубежные кинофильмы  HD-AVC

    Текущее время: 10-Дек 21:06

    Часовой пояс: UTC + 5



    Вы не можете начинать темы
    Вы не можете отвечать на сообщения
    Вы не можете редактировать свои сообщения
    Вы не можете удалять свои сообщения
    Вы не можете голосовать в опросах
    Вы не можете прикреплять файлы к сообщениям
    Вы не можете скачивать файлы