Невероятный Халк / Xalk 2 / The Incredible Hulk (Луи Летерье / Louis Leterrier) [2008, Боевик, Фантастика, HDRip-AVC] MVO (O'zbek Tilida) от UzToR :: UZTOR.PW Лучший трекер в зоне TAS-IX!
Регистрация ·
Имя: Пароль:  
· Забыли пароль?
Уважаемые гости сайта! Добро Пожаловать на наш торрент трекер,где Вы можете бесплатно скачать любой Софт,Фильмы,Музыку и многое другое! А так же постоянно ведется набор модераторов и релизеров. Зарегистрируйтесь сейчас, чтобы получить доступ ко всем функциям. После регистрации или входа на сайт вы сможете создавать темы, отвечать на сообщения и скачивать файлы.

Навигация по Торрент раздачам и Форум

До нового обновления Торрент-Трекер осталось

  Невероятный Халк / Xalk 2 / The Incredible Hulk (Луи Летерье / Louis Leterrier) [2008, Боевик, Фантастика, HDRip-AVC] MVO (O'zbek Tilida) от UzToR

Главная  Кинофильмы  Ўзбек фильмлар учун
Статистика раздачи
Качаю: [ 1 ]
Скачал: [ 1 ]
 
     
 
 
Автор Сообщение
  • -InVoKeR- ®
  • Не в сети
  • 5057
  • VIP пользователь

  • Пол: Мужской

  • Стаж: 1 год

  • Сообщений: 420

  • Откуда: uztor.pw

  • Провайдер: UzOnline UzOnline

  • Тарифный план: Unlim 4 (Мир: 4 Мбит/с, Tas-ix: 100Мбит/с)

  • Steam: 76561198442747843

  • Telegram: i_Invoker

  • Карма: 1128


  • Наличие запрета:

  • Награды: 22 (Подробнее)
    Admin (Количество: 1) Авторитет (Количество: 1) Активный релизер 1 (Количество: 1) Активный релизер 2 (Количество: 1) Активный сидер 1 (Количество: 1)
  • Создавать темы 30-Ноя-2019 16:13

    Невероятный Халк / The Incredible Hulk-- Год выпуска: 2008
    Производство: США
    Продолжительность: 01:52:14
    Перевод: Профессиональный (Многоголосый закдровый) на Узбекском Языке
    Субтитры: русские, английские-Режиссер: Луи Летерье-В ролях: Эдвард Нортон, Лив Тайлер, Тим Рот, Тим Блейк Нельсон, Ти Баррелл,Уильям Херт, Кристина Сабот, Питер Менса, Лу Ферриньо, Пол Соулз-Описание: История доктора Брюса Баннера, который ищет лекарство от своего необычного «заболевания», превращающего его во время эмоционального стресса в гигантского зеленого монстра Халка. Находясь в бегах от армии, стремящейся его захватить, Брюс почти находит лекарство, но все старания идут прахом, когда у Халка вдруг появляется новый, невероятно сильный противник.- -Качество: HDRip-AVC
    Формат: MKV
    Видео: AVC, 960 х 408,~1 884 kb/s
    Аудио: AC3 2.0, 128 kbps - O'zbek Tilida--

    MediaInfo

    General
    Unique ID : 257048732075651623066399695954757286736 (0xC161C8F789AC9A3D21C5BD13BB9FFB50)
    Complete name : E:\kino\Невероятный-Халк.2008.RUS.HDRip-AVC-invoker _x264.mkv
    Format : Matroska
    Format version : Version 4
    File size : 1.58 GiB
    Duration : 1 h 52 min
    Overall bit rate : 2 011 kb/s
    Writing application : Lavf56.36.100
    Writing library : Lavf56.36.100
    Video
    ID : 1
    Format : AVC
    Format/Info : Advanced Video Codec
    Format profile : Baseline@L1.3
    Format settings : 2 Ref Frames
    Format settings, CABAC : No
    Format settings, Reference : 2 frames
    Codec ID : V_MPEG4/ISO/AVC
    Duration : 1 h 52 min
    Bit rate : 1 884 kb/s
    Width : 960 pixels
    Height : 408 pixels
    Display aspect ratio : 4:3
    Frame rate mode : Constant
    Frame rate : 23.976 FPS
    Color space : YUV
    Chroma subsampling : 4:2:0
    Bit depth : 8 bits
    Scan type : Progressive
    Bits/(Pixel*Frame) : 0.201
    Stream size : 1.44 GiB (92%)
    Title : Video
    Writing library : x264 core 148 r2579 73ae2d1
    Encoding settings : cabac=0 / ref=2 / deblock=1:0:0 / analyse=0x1:0x111 / me=umh / subme=6 / psy=1 / psy_rd=1.00:0.00 / mixed_ref=1 / me_range=16 / chroma_me=1 / trellis=0 / 8x8dct=0 / cqm=0 / deadzone=21,11 / fast_pskip=1 / chroma_qp_offset=-2 / threads=3 / lookahead_threads=1 / sliced_threads=0 / nr=0 / decimate=1 / interlaced=0 / bluray_compat=0 / constrained_intra=0 / bframes=0 / weightp=0 / keyint=250 / keyint_min=23 / scenecut=40 / intra_refresh=0 / rc_lookahead=40 / rc=abr / mbtree=1 / bitrate=1884 / ratetol=1.0 / qcomp=0.60 / qpmin=0 / qpmax=69 / qpstep=4 / ip_ratio=1.40 / aq=1:1.00
    Language : English
    Default : Yes
    Forced : No
    Audio
    ID : 2
    Format : AC-3
    Format/Info : Audio Coding 3
    Commercial name : Dolby Digital
    Codec ID : A_AC3
    Duration : 1 h 52 min
    Bit rate mode : Constant
    Bit rate : 128 kb/s
    Channel(s) : 2 channels
    Channel layout : L R
    Sampling rate : 44.1 kHz
    Frame rate : 28.711 FPS (1536 SPF)
    Bit depth : 16 bits
    Compression mode : Lossy
    Delay relative to video : -6 ms
    Stream size : 103 MiB (6%)
    Writing library : Lavc56.41.100 ac3
    Service kind : Complete Main
    Default : No
    Forced : No

    _________________
    Показать сообщения:    
    Главная  Кинофильмы  Ўзбек фильмлар учун

    Текущее время: 07-Дек 17:48

    Часовой пояс: UTC + 5



    Вы не можете начинать темы
    Вы не можете отвечать на сообщения
    Вы не можете редактировать свои сообщения
    Вы не можете удалять свои сообщения
    Вы не можете голосовать в опросах
    Вы не можете прикреплять файлы к сообщениям
    Вы не можете скачивать файлы