Рэмбо: Последняя кровь / Rambo: Last Blood (Адриан Грюнберг / Adrian Grunberg) [2019, Боевик, триллер, приключения, BDRip 720p, Р] :: UZTOR.PW Лучший трекер в зоне TAS-IX!
Регистрация ·
Имя: Пароль:  
· Забыли пароль?
Уважаемые гости сайта! Добро Пожаловать на наш торрент трекер,где Вы можете бесплатно скачать любой Софт,Фильмы,Музыку и многое другое! А так же постоянно ведется набор модераторов и релизеров. Зарегистрируйтесь сейчас, чтобы получить доступ ко всем функциям. После регистрации или входа на сайт вы сможете создавать темы, отвечать на сообщения и скачивать файлы.

Навигация по Торрент раздачам и Форум

До нового обновления Торрент-Трекер осталось

 Рэмбо: Последняя кровь / Rambo: Last Blood (Адриан Грюнберг / Adrian Grunberg) [2019, Боевик, триллер, приключения, BDRip 720p, Р]

Главная  Кинофильмы  Зарубежные кинофильмы  HD
Статистика раздачи
Нет
 
     
 
 
Автор Сообщение
  • NuRKHoNoFF ®
  • Не в сети
  • 5064
  • Пол: Мужской

  • Стаж: 11 месяцев 23 дня

  • Сообщений: 919

  • Откуда: Каттакурган

  • Провайдер: TPS TPS

  • Карма: 583


  • Наличие запрета:

  • Награды: 17 (Подробнее)
    Активный релизер 1 (Количество: 1) Активный релизер 2 (Количество: 1) Активный релизер 3 (Количество: 1) Активный релизер 4 (Количество: 1) Активный релизер 5 (Количество: 1)
  • Создавать темы 30-Ноя-2019 14:52

    Рэмбо: Последняя кровь / Rambo: Last Blood -Год выпуска: 2019
    Страна: США
    Жанр: Боевик, триллер, приключения
    Продолжительность: 01:41:46
    Перевод: Дублированный [Чистый звук]-Режиссер: Андрес Мускетти / Andy Muschietti-В ролях: Сильвестр Сталлоне, Пас Вега, Серхио Перис-Менчета, Адриана Барраса, Ивет Монреаль, Джени Ким, Хоакин Косио, Паскасио Лопес, Оскар Хаэнада, Alexander Dimitrov-Описание: Он хранил секреты всю жизнь, но пришло время взглянуть в глаза прошлому. В последний раз собраться и стать безжалостной машиной для убийства. Рэмбо снова встанет на смертельно опасный путь - путь мести, который ему придется пройти до конца.- -Качество: BDRip 720p [Реклама]
    Формат: MKV
    Видео: AVC, 6932 kb/s, 1280x534
    Аудио: AC3, 2 ch, 448 kb/s-

    MediaInfo

    General
    Unique ID : 226054422533634080220105397035226405975 (0xAA107F8639BC6178BF2815F63AFC9C57)
    Complete name : Rambo.Last.Blood.2019.D.BDRip.72Op.UZTOR.PW.mkv
    Format : Matroska
    Format version : Version 2
    File size : 5.34 GiB
    Duration : 1 h 41 min
    Overall bit rate mode : Variable
    Overall bit rate : 7 508 kb/s
    Encoded date : UTC 2019-11-30 03:11:22
    Writing application : mkvmerge v8.3.0 ('Over the Horizon') 64bit
    Writing library : libebml v1.3.1 + libmatroska v1.4.2
    Video
    ID : 1
    Format : AVC
    Format/Info : Advanced Video Codec
    Format profile : High@L4.1
    Format settings : CABAC / 4 Ref Frames
    Format settings, CABAC : Yes
    Format settings, Reference : 4 frames
    Codec ID : V_MPEG4/ISO/AVC
    Duration : 1 h 41 min
    Bit rate mode : Variable
    Bit rate : 6 932 kb/s
    Nominal bit rate : 7 600 kb/s
    Maximum bit rate : 7 600 kb/s
    Width : 1 280 pixels
    Height : 534 pixels
    Display aspect ratio : 2.40:1
    Frame rate mode : Constant
    Frame rate : 23.976 (24000/1001) FPS
    Standard : Component
    Color space : YUV
    Chroma subsampling : 4:2:0
    Bit depth : 8 bits
    Scan type : Progressive
    Bits/(Pixel*Frame) : 0.423
    Stream size : 4.93 GiB (92%)
    Writing library : x264 core 155
    Encoding settings : cabac=1 / ref=4 / deblock=1:0:0 / analyse=0x3:0x3 / me=dia / subme=1 / psy=1 / psy_rd=1.00:0.00 / mixed_ref=0 / me_range=16 / chroma_me=1 / trellis=0 / 8x8dct=1 / cqm=1 / deadzone=21,11 / fast_pskip=1 / chroma_qp_offset=0 / threads=17 / lookahead_threads=2 / sliced_threads=0 / slices=1 / nr=0 / decimate=1 / interlaced=0 / minigop=0 / stitchable=1 / constrained_intra=0 / bframes=2 / b_pyramid=0 / b_adapt=0 / b_bias=0 / direct=1 / weightb=1 / open_gop=1 / weightp=0 / keyint=240 / keyint_min=23 / scenecut=40 / intra_refresh=0 / rc_lookahead=0 / rc=cbr / mbtree=0 / bitrate=7600 / ratetol=1.0 / qcomp=0.60 / qpmin=1 / qpmax=69 / qpstep=4 / vbv_maxrate=7600 / vbv_bufsize=7600 / nal_hrd=vbr / filler=0 / ip_ratio=1.40 / pb_ratio=1.30 / aq=1:1.00
    Default : Yes
    Forced : No
    Color range : Limited
    Color primaries : BT.709
    Transfer characteristics : BT.709
    Matrix coefficients : BT.709
    Audio
    ID : 2
    Format : AAC Main
    Format/Info : Advanced Audio Codec
    Codec ID : A_AAC-1
    Duration : 1 h 41 min
    Bit rate : 576 kb/s
    Channel(s) : 2 channels
    Channel layout : L R
    Sampling rate : 48.0 kHz
    Frame rate : 46.875 FPS (1024 SPF)
    Compression mode : Lossy
    Stream size : 417 MiB (8%)
    Default : Yes
    Forced : No


    _________________
    Показать сообщения:    
    Главная  Кинофильмы  Зарубежные кинофильмы  HD

    Текущее время: 10-Дек 04:42

    Часовой пояс: UTC + 5



    Вы не можете начинать темы
    Вы не можете отвечать на сообщения
    Вы не можете редактировать свои сообщения
    Вы не можете удалять свои сообщения
    Вы не можете голосовать в опросах
    Вы не можете прикреплять файлы к сообщениям
    Вы не можете скачивать файлы