Руководство по сексу на втором свидании / A Guide to Second Date Sex (Рейчел Хиронс / Rachel Hirons) [2019, Мелодрама, комедия, WEB-DL 1080р] iTunes :: UZTOR.PW Лучший трекер в зоне TAS-IX!
Регистрация ·
Имя: Пароль:  
· Забыли пароль?
Уважаемые гости сайта! Добро Пожаловать на наш торрент трекер,где Вы можете бесплатно скачать любой Софт,Фильмы,Музыку и многое другое! А так же постоянно ведется набор модераторов и релизеров. Зарегистрируйтесь сейчас, чтобы получить доступ ко всем функциям. После регистрации или входа на сайт вы сможете создавать темы, отвечать на сообщения и скачивать файлы.

Навигация по Торрент раздачам и Форум

До нового обновления Торрент-Трекер осталось

 Руководство по сексу на втором свидании / A Guide to Second Date Sex (Рейчел Хиронс / Rachel Hirons) [2019, Мелодрама, комедия, WEB-DL 1080р] iTunes

Главная  Кинофильмы  Зарубежные кинофильмы  HD
Статистика раздачи
Нет
 
     
 
 
Автор Сообщение
  • NuRKHoNoFF ®
  • Не в сети
  • 5064
  • Пол: Мужской

  • Стаж: 11 месяцев 23 дня

  • Сообщений: 919

  • Откуда: Каттакурган

  • Провайдер: TPS TPS

  • Карма: 583


  • Наличие запрета:

  • Награды: 17 (Подробнее)
    Активный релизер 1 (Количество: 1) Активный релизер 2 (Количество: 1) Активный релизер 3 (Количество: 1) Активный релизер 4 (Количество: 1) Активный релизер 5 (Количество: 1)
  • Создавать темы 29-Ноя-2019 18:12

    Руководство по сексу на втором свидании / A Guide to Second Date Sex -Год выпуска: 2019
    Страна: Великобритания
    Жанр: Мелодрама, комедия
    Продолжительность: 01:17:46
    Перевод: Дублированный [iTunes]-Режиссер: Рейчел Хиронс / Rachel Hirons-В ролях: Джордж Маккэй, Александра Роуч, Майкл Сока, Эмма Ригби, Каэ Александр, Том Белл, Холли Демпси, Наоми Уиллоу, Том Палмер, Жаклин Рамнарин-Описание: Когда надо тащить девушку в постель? На первом свидании? На втором? Именно на этот вопрос и предстоит ответить Райану, когда он после разрыва с подругой из-за измены, встречает девушку своей мечты.
    - -Качество: WEB-DL 1080р
    Формат: MKV
    Видео: AVC, 4356 Kb/s, 1920х804
    Аудио: AC3, 6 ch, 384 kbps-

    MediaInfo

    General
    Unique ID : 211755798929745991088725427984822251715 (0x9F4EAEF3AC1B0D10B18CB113EA3530C3)
    Complete name : Rukovodstvo.po.seksu.na.vtorom.svidanii.WEB-DL.1080p.ELEKTRI4KA.UNIONGANG.mkv
    Format : Matroska
    Format version : Version 4
    File size : 2.63 GiB
    Duration : 1 h 17 min
    Overall bit rate : 4 837 kb/s
    Encoded date : UTC 2019-11-29 11:55:49
    Writing application : mkvmerge v8.3.0 ('Over the Horizon') 64bit
    Writing library : libebml v1.3.1 + libmatroska v1.4.2
    Video
    ID : 1
    Format : AVC
    Format/Info : Advanced Video Codec
    Format profile : High@L4
    Format settings : CABAC / 5 Ref Frames
    Format settings, CABAC : Yes
    Format settings, Reference frames : 5 frames
    Codec ID : V_MPEG4/ISO/AVC
    Duration : 1 h 17 min
    Bit rate : 4 451 kb/s
    Width : 1 920 pixels
    Height : 804 pixels
    Display aspect ratio : 2.40:1
    Frame rate mode : Constant
    Frame rate : 25.000 FPS
    Color space : YUV
    Chroma subsampling : 4:2:0
    Bit depth : 8 bits
    Scan type : Progressive
    Bits/(Pixel*Frame) : 0.115
    Stream size : 2.42 GiB (92%)
    Title : iTunes (ELEKTRI4KA.UNIONGANG)
    Language : English
    Default : Yes
    Forced : No
    Color range : Limited
    Color primaries : BT.709
    Transfer characteristics : BT.709
    Matrix coefficients : BT.709
    Audio
    ID : 2
    Format : AC-3
    Format/Info : Audio Coding 3
    Commercial name : Dolby Digital
    Codec ID : A_AC3
    Duration : 1 h 17 min
    Bit rate mode : Constant
    Bit rate : 384 kb/s
    Channel(s) : 6 channels
    Channel layout : L R C LFE Ls Rs
    Sampling rate : 48.0 kHz
    Frame rate : 31.250 FPS (1536 SPF)
    Bit depth : 16 bits
    Compression mode : Lossy
    Stream size : 214 MiB (8%)
    Title : iTunes (ELEKTRI4KA.UNIONGANG)
    Language : Russian
    Service kind : Complete Main
    Default : Yes
    Forced : No


    _________________
    Показать сообщения:    
    Главная  Кинофильмы  Зарубежные кинофильмы  HD

    Текущее время: 10-Дек 04:42

    Часовой пояс: UTC + 5



    Вы не можете начинать темы
    Вы не можете отвечать на сообщения
    Вы не можете редактировать свои сообщения
    Вы не можете удалять свои сообщения
    Вы не можете голосовать в опросах
    Вы не можете прикреплять файлы к сообщениям
    Вы не можете скачивать файлы