Курьер / The Courier (Закари Адлер / Zackary Adler) [2019, Боевик, триллер, драма, WEBRip-HEVC 720p] :: UZTOR.PW Лучший трекер в зоне TAS-IX!
Регистрация ·
Имя: Пароль:  
· Забыли пароль?
Уважаемые гости сайта! Добро Пожаловать на наш торрент трекер,где Вы можете бесплатно скачать любой Софт,Фильмы,Музыку и многое другое! А так же постоянно ведется набор модераторов и релизеров. Зарегистрируйтесь сейчас, чтобы получить доступ ко всем функциям. После регистрации или входа на сайт вы сможете создавать темы, отвечать на сообщения и скачивать файлы.

Навигация по Торрент раздачам и Форум

До нового обновления Торрент-Трекер осталось

 Курьер / The Courier (Закари Адлер / Zackary Adler) [2019, Боевик, триллер, драма, WEBRip-HEVC 720p]

Главная  Кинофильмы  Кинофильмы (HEVC)  Новинки
Статистика раздачи
Нет
 
     
 
 
Автор Сообщение
  • NuRKHoNoFF ®
  • Не в сети
  • 5064
  • Пол: Мужской

  • Стаж: 11 месяцев 23 дня

  • Сообщений: 919

  • Откуда: Каттакурган

  • Провайдер: TPS TPS

  • Карма: 583


  • Наличие запрета:

  • Награды: 17 (Подробнее)
    Активный релизер 1 (Количество: 1) Активный релизер 2 (Количество: 1) Активный релизер 3 (Количество: 1) Активный релизер 4 (Количество: 1) Активный релизер 5 (Количество: 1)
  • Создавать темы 29-Ноя-2019 14:17

    Курьер / The Courier -Год выпуска: 2019
    Страна: Великобритания, США
    Жанр: Боевик, триллер, драма
    Продолжительность: 01:39:34
    Перевод: Любительский [двухголосный, закадровый]-Режиссер: Закари Адлер / Zackary Adler-В ролях: Ольга Куриленко, Гари Олдман, Уильям Моусли, Дермот Малруни, Алисия Агнесон, Амит Шах, Каллиопе Джейн Тейлор, Крэйг Конуэй, Ли Чарльз, Джоэль Майкли-Описание: Она - курьер на мотоцикле, развозит посылки по ночному Лондону. И именно она помогает выжить единственному свидетелю, который должен дать показания на криминального босса- -Качество: WEBRip-HEVC 720p
    Формат: MKV
    Видео: HEVC, 765 Kb/s, 1280x528
    Аудио: AC3, 6 ch, 384 kb/c-

    MediaInfo

    General
    Unique ID : 57050748384718037828754963387411379354 (0x2AEB93103A97B8804973AEAA8FA4B49A)
    Complete name : The.Courier.2019.720p.WEBRip.2CH.x265.HEVC.ELEKTRI4KA.UNIONGANG.mkv
    Format : Matroska
    Format version : Version 4
    File size : 819 MiB
    Duration : 1 h 39 min
    Overall bit rate : 1 150 kb/s
    Movie name : The.Courier.2019.720p.WEBRip.2CH.x265.HEVC.ELEKTRI4KA.UNIONGANG
    Encoded date : UTC 2019-11-29 08:05:52
    Writing application : mkvmerge v34.0.0 ('Sight and Seen') 64-bit
    Writing library : libebml v1.3.7 + libmatroska v1.5.0
    Video
    ID : 1
    Format : HEVC
    Format/Info : High Efficiency Video Coding
    Format profile : Main@L3.1@Main
    Codec ID : V_MPEGH/ISO/HEVC
    Duration : 1 h 39 min
    Bit rate : 765 kb/s
    Width : 1 280 pixels
    Height : 528 pixels
    Display aspect ratio : 2.40:1
    Frame rate mode : Constant
    Frame rate : 23.976 (24000/1001) FPS
    Color space : YUV
    Chroma subsampling : 4:2:0
    Bit depth : 8 bits
    Bits/(Pixel*Frame) : 0.047
    Stream size : 545 MiB (66%)
    Default : Yes
    Forced : No
    Color range : Limited
    Color primaries : BT.709
    Transfer characteristics : BT.709
    Matrix coefficients : BT.709
    Audio
    ID : 2
    Format : AC-3
    Format/Info : Audio Coding 3
    Commercial name : Dolby Digital
    Codec ID : A_AC3
    Duration : 1 h 39 min
    Bit rate mode : Constant
    Bit rate : 384 kb/s
    Channel(s) : 6 channels
    Channel layout : L R C LFE Ls Rs
    Sampling rate : 44.1 kHz
    Frame rate : 28.711 FPS (1536 SPF)
    Bit depth : 16 bits
    Compression mode : Lossy
    Stream size : 274 MiB (33%)
    Language : Russian
    Service kind : Complete Main
    Default : Yes
    Forced : No


    _________________
    • NuRKHoNoFF ®
    • Не в сети
    • 5064
    • Пол: Мужской

    • Стаж: 11 месяцев 23 дня

    • Сообщений: 919

    • Откуда: Каттакурган

    • Провайдер: TPS TPS

    • Карма: 583


    • Наличие запрета:

    • Награды: 17 (Подробнее)
      Активный релизер 1 (Количество: 1) Активный релизер 2 (Количество: 1) Активный релизер 3 (Количество: 1) Активный релизер 4 (Количество: 1) Активный релизер 5 (Количество: 1)
  • Создавать темы 29-Ноя-2019 14:18 (спустя 27 секунд)

    Релиз сделан с помощью современного кодека x265(HEVC), который обеспечивает высокую степень сжатия и отличное качество! Всем Приятного просмотра!

    _________________
    Показать сообщения:    
    Главная  Кинофильмы  Кинофильмы (HEVC)  Новинки

    Текущее время: 10-Дек 05:07

    Часовой пояс: UTC + 5



    Вы не можете начинать темы
    Вы не можете отвечать на сообщения
    Вы не можете редактировать свои сообщения
    Вы не можете удалять свои сообщения
    Вы не можете голосовать в опросах
    Вы не можете прикреплять файлы к сообщениям
    Вы не можете скачивать файлы