Мастер Z: Наследие Ип Мана / Ye wen wai zhuan: Zhang tian zhi / Master Z: Ip Man Legacy(Юэнь Ву-Пин / Woo-Ping Yuen) [2018, Боевик, BDRip-AVC] :: UZTOR.PW Лучший трекер в зоне TAS-IX!
Регистрация ·
Имя: Пароль:  
· Забыли пароль?
Уважаемые гости сайта! Добро Пожаловать на наш торрент трекер,где Вы можете бесплатно скачать любой Софт,Фильмы,Музыку и многое другое! А так же постоянно ведется набор модераторов и релизеров. Зарегистрируйтесь сейчас, чтобы получить доступ ко всем функциям. После регистрации или входа на сайт вы сможете создавать темы, отвечать на сообщения и скачивать файлы.

Навигация по Торрент раздачам и Форум

До нового обновления Торрент-Трекер осталось

 Мастер Z: Наследие Ип Мана / Ye wen wai zhuan: Zhang tian zhi / Master Z: Ip Man Legacy(Юэнь Ву-Пин / Woo-Ping Yuen) [2018, Боевик, BDRip-AVC]

Главная  Кинофильмы  Азиатские кинофильмы
Статистика раздачи
Скачал: [ 1 ]
 
     
 
 
Автор Сообщение
  • -InVoKeR- ®
  • Не в сети
  • 5057
  • VIP пользователь

  • Пол: Мужской

  • Стаж: 1 год

  • Сообщений: 424

  • Откуда: uztor.pw

  • Провайдер: UzOnline UzOnline

  • Тарифный план: Unlim 4 (Мир: 4 Мбит/с, Tas-ix: 100Мбит/с)

  • Steam: 76561198442747843

  • Telegram: i_Invoker

  • Карма: 1128


  • Наличие запрета:

  • Награды: 22 (Подробнее)
    Admin (Количество: 1) Авторитет (Количество: 1) Активный релизер 1 (Количество: 1) Активный релизер 2 (Количество: 1) Активный сидер 1 (Количество: 1)
  • Создавать темы 28-Ноя-2019 20:55

    Мастер Z: Наследие Ип Мана / Ye wen wai zhuan: Zhang tian zhi / Master Z: Ip Man Legacy--
    Год выпуска: 2018
    Страна: Китай, Гонконг
    Жанр: Боевик
    Продолжительность: 01:47:34
    Перевод: Профессиональный многоголосый HDrezka Studio-Режиссер: Юэнь Ву-Пин / Woo-Ping Yuen-В ролях: Макс Чжан, Дэйв Батиста, Мишель Йео, Тони Джа, Крисси Чау, Кевин Чэн, Син Юй, Филип Кюн-Описание: После проигранного поединка Ип Ману, Чонг Тин Чи принимает решение закрыть академию боевых искусств, чтобы вести простую жизнь владельца маленького продуктового магазина. Но вскоре Чонг сталкивается с очередными неприятностями, когда спасает девушку от банды головорезов, которые подчиняются могущественному гангстеру Киту. Спустя некоторое время преступник начинает мстить, сжигая дом и магазин Тин Чи. Когда мастеру боевых искусств не удается мирным путем урегулировать конфликт, он решает вступить в открытое противостояние с Китом и его бандой...- -Качество: BDRip-AVC
    Формат: avi
    Видео: AVC 1120x496, 1744 kbps
    Аудио: AC3, 2ch, 256 kbps--

    MediaInfo

    General
    Unique ID : 212425577111378192208070956819978581675 (0x9FCFAD90D5B83A6A7AC128559C76F6AB)
    Complete name : F:Мастер Z. Наследие Ип Мана.mkv
    Format : Matroska
    Format version : Version 4 / Version 2
    File size : 1.50 GiB
    Duration : 1 h 47 min
    Overall bit rate : 2 002 kb/s
    Movie name : Мастер Z. Наследие Ип Мана / Master Z. Ip Man Legacy (2018) - #LORDKILL#
    Encoded date : UTC 2019-04-28 11:33:11
    Writing application : mkvmerge v21.0.0 ('Tardigrades Will Inherit The Earth') 64-bit
    Writing library : libebml v1.3.5 + libmatroska v1.4.8
    Video
    ID : 1
    Format : AVC
    Format/Info : Advanced Video Codec
    Format profile : High@L4.1
    Format settings, CABAC : Yes
    Format settings, ReFrames : 11 frames
    Codec ID : V_MPEG4/ISO/AVC
    Duration : 1 h 47 min
    Bit rate : 1 744 kb/s
    Width : 1 120 pixels
    Height : 496 pixels
    Display aspect ratio : 2.25:1
    Frame rate mode : Constant
    Frame rate : 24.000 FPS
    Color space : YUV
    Chroma subsampling : 4:2:0
    Bit depth : 8 bits
    Scan type : Progressive
    Bits/(Pixel*Frame) : 0.131
    Stream size : 1.31 GiB (87%)
    Writing library : x264 core 146 r2538 121396c
    Encoding settings : cabac=1 / ref=11 / deblock=1:-1:-1 / analyse=0x3:0x113 / me=umh / subme=11 / psy=1 / psy_rd=1.00:0.15 / mixed_ref=1 / me_range=32 / chroma_me=1 / trellis=2 / 8x8dct=1 / cqm=0 / deadzone=21,11 / fast_pskip=0 / chroma_qp_offset=-3 / threads=12 / lookahead_threads=2 / sliced_threads=0 / nr=0 / decimate=1 / interlaced=0 / bluray_compat=0 / constrained_intra=0 / bframes=8 / b_pyramid=2 / b_adapt=2 / b_bias=0 / direct=1 / weightb=1 / open_gop=0 / weightp=2 / keyint=240 / keyint_min=23 / scenecut=40 / intra_refresh=0 / rc=crf / mbtree=0 / crf=20.0 / qcomp=0.60 / qpmin=0 / qpmax=69 / qpstep=4 / ip_ratio=1.40 / pb_ratio=1.30 / aq=1:1.00
    Language : English
    Default : Yes
    Forced : No
    Audio
    ID : 2
    Format : AC-3
    Format/Info : Audio Coding 3
    Mode extension : CM (complete main)
    Format settings, Endianness : Big
    Codec ID : A_AC3
    Duration : 1 h 47 min
    Bit rate mode : Constant
    Bit rate : 256 kb/s
    Channel(s) : 2 channels
    Channel positions : Front: L R
    Sampling rate : 48.0 kHz
    Frame rate : 31.250 FPS (1536 spf)
    Bit depth : 16 bits
    Compression mode : Lossy
    Stream size : 197 MiB (13%)
    Title : Многоголосый (HDRezka Studio)
    Language : Russian
    Default : Yes
    Forced : No
    Menu
    00:00:00.000 : en:Chapter 01
    00:05:47.000 : en:Chapter 02
    00:11:29.833 : en:Chapter 03
    00:15:46.375 : en:Chapter 04
    00:19:10.416 : en:Chapter 05
    00:28:58.583 : en:Chapter 06
    00:33:33.250 : en:Chapter 07
    00:38:34.416 : en:Chapter 08
    00:48:14.708 : en:Chapter 09
    00:53:38.833 : en:Chapter 10
    01:00:10.041 : en:Chapter 11
    01:04:38.458 : en:Chapter 12
    01:09:35.583 : en:Chapter 13
    01:19:20.500 : en:Chapter 14
    01:22:55.916 : en:Chapter 15
    01:27:42.750 : en:Chapter 16
    01:34:36.541 : en:Chapter 17
    01:42:54.666 : en:Chapter 18

    _________________
    Показать сообщения:    
    Главная  Кинофильмы  Азиатские кинофильмы

    Текущее время: 14-Дек 07:27

    Часовой пояс: UTC + 5



    Вы не можете начинать темы
    Вы не можете отвечать на сообщения
    Вы не можете редактировать свои сообщения
    Вы не можете удалять свои сообщения
    Вы не можете голосовать в опросах
    Вы не можете прикреплять файлы к сообщениям
    Вы не можете скачивать файлы