Игра престолов / Game Of Thrones (Брайан Кирк, Даниэль Минахан, Алан Тейлор, Тимоти Ван Паттен) [Сезон 1 Полный] [Серии 1-10 из 10] [2011, Фэнтези, Приключения, Драма, Мелодрама, BDRip-HEVC 1080p] DUB (Kravec / Ren-TV) MVO (AlexFilm/LostFilm/FoxLife) :: UZTOR.PW Лучший трекер в зоне TAS-IX!
Регистрация ·
Имя: Пароль:  
· Забыли пароль?
Уважаемые гости сайта! Добро Пожаловать на наш торрент трекер,где Вы можете бесплатно скачать любой Софт,Фильмы,Музыку и многое другое! А так же постоянно ведется набор модераторов и релизеров. Зарегистрируйтесь сейчас, чтобы получить доступ ко всем функциям. После регистрации или входа на сайт вы сможете создавать темы, отвечать на сообщения и скачивать файлы.

Навигация по Торрент раздачам и Форум

До нового обновления Торрент-Трекер осталось

 Игра престолов / Game Of Thrones (Брайан Кирк, Даниэль Минахан, Алан Тейлор, Тимоти Ван Паттен) [Сезон 1 Полный] [Серии 1-10 из 10] [2011, Фэнтези, Приключения, Драма, Мелодрама, BDRip-HEVC 1080p] DUB (Kravec / Ren-TV) MVO (AlexFilm/LostFilm/FoxLife)

Главная  Сериалы  Американские и Европейские сериалы
Статистика раздачи
Нет
 
     
 
 
Автор Сообщение
  • -InVoKeR- ®
  • Не в сети
  • 5057
  • VIP пользователь

  • Пол: Мужской

  • Стаж: 1 год

  • Сообщений: 423

  • Откуда: uztor.pw

  • Провайдер: UzOnline UzOnline

  • Тарифный план: Unlim 4 (Мир: 4 Мбит/с, Tas-ix: 100Мбит/с)

  • Steam: 76561198442747843

  • Telegram: i_Invoker

  • Карма: 1128


  • Наличие запрета:

  • Награды: 22 (Подробнее)
    Admin (Количество: 1) Авторитет (Количество: 1) Активный релизер 1 (Количество: 1) Активный релизер 2 (Количество: 1) Активный сидер 1 (Количество: 1)
  • Создавать темы 27-Ноя-2019 23:35

    Игра престолов / Game Of Thrones-- Год выхода: 2011
    Производство: США, Великобритания
    Жанр: Фэнтези, Приключения, Драма, Мелодрама
    Продолжительность: 10x ~00.56.00
    Перевод(ы):
    Дублированный Kravec
    Дублированный Ren-TV
    Профессиональный (многоголосый закадровый) AlexFilm
    Профессиональный (многоголосый закадровый) LostFilm
    Профессиональный (многоголосый закадровый) FoxLife
    Субтитры: Русские (Forced)-Режиссер: Брайан Кирк, Даниэль Минахан, Алан Тейлор, Тимоти Ван Паттен-В ролях: Лина Хиди, Джек Глисон, Шон Бин, Мишель Фэйрли, Эмилия Кларк, Иэн Глен, Джейсон Момоа, Софи Тёрнер, Мэйси Уильямс, Альфи Аллен, Питер Динклэйдж, Николай Костер-Вальдау, Эйдан Гиллен, Кит Харингтон, Ричард Мэдден, Айзек Хэмпстед-Райт, Рори Макканн, Марк Эдди, Гарри Ллойд-Описание: Эддарда (Неда) Старка просят стать Десницей (главным советником) развратного короля Роберта Баратеона. Нед и его жена Кейтилин получают письмо от Лизы Аррен, сестры Кейтилин и вдовы предыдущего Десницы, Джона Аррена. Письмо даёт основание полагать, что причиной смерти Джона Аррена был дом Ланнистеров, к которому принадлежит жена короля Серсея. Нед должен ехать на юг, чтобы помочь королю выяснить, кто убил Джона Аррена, и защитить свою семью от Ланнистеров. Выясняется, что Аррен погиб, пытаясь разоблачить тёмные тайны Ланнистеров. За Узким морем, на континенте Эссос, высокомерный Визерис Таргариен, сын свергнутого короля, считает, что по-прежнему имеет законное право на престол. Он выдаёт свою младшую сестру, Дейенерис Таргариен, которую подвергал психологическому и физическому насилию в течение многих лет, замуж за вождя воинственного племени дотракийцев, кхала Дрого, в обмен на армию, чтобы вернуться в Вестерос и занять Железный трон. Однако растущая любовь Дейенерис к Дрого нарушает планы Визериса. Внебрачный сын Неда, Джон Сноу, вступает в Ночной Дозор, древнее братство, поклявшееся присматривать за Стеной, которая отделяет Семь Королевств от неизвестной земли за её пределами. Но древняя сила, долгое время считавшаяся мёртвой, угрожает земле.- -Качество: BDRip-HEVC 1080p
    Формат: MKV
    Видео: HEVC/X.265, 1920x1080, ~4775-7968 кбит/сек, 10 bit
    Аудио 1: AC3, 2 ch, 192 kb/s Дубляж (Kravec)
    Аудио 2: AC3, 2 ch, 192 kb/s Дубляж (Ren-TV)
    Аудио 3 : AC3, 6 ch, 640 Kbps - Русский, MVO (AlexFilm)
    Аудио 4 : AC3, 6 ch, 640 Kbps - Русский, MVO (LostFilm)
    Аудио 5 : AC3, 6 ch, 640 Kbps - Русский, MVO (FoxLife)
    Аудио 6 : AC3, 6 ch, 640 Kbps - Английский, Original-

    Mediainfo

    x265 info: frame I: 349, Avg QP:17.97 kb/s: 26260.89
    x265 info: frame P: 18585, Avg QP:19.26 kb/s: 13648.67
    x265 info: frame B: 64194, Avg QP:21.42 kb/s: 4691.69
    x265 info: Weighted P-Frames: Y:5.1% UV:3.9%
    x265 info: Weighted B-Frames: Y:7.6% UV:5.6%
    x265 info: consecutive B-frames: 1.4% 2.0% 40.0% 16.7% 12.7% 17.8% 4.4% 2.9% 1.0% 0.6% 0.4% 0.2% 0.2%
    x265 info: encoded 83128 frames in 105091.68s (0.79 fps), 6784.76 kb/s, Avg QP:20.93
    General
    Unique ID : 222429073692926766024437125865316792839 (0xA7564806BBE5B222892D522E2677BA07)
    Complete name : D:Download/Game_Of_Thrones_Season 01#01 Зима близко.mkv
    Format : Matroska
    Format version : Version 4
    File size : 4.70 GiB
    Duration : 1 h 1 min
    Overall bit rate : 10.9 Mb/s
    Movie name : Зима близко / Winter Is Coming
    Encoded date : UTC 2019-12-03 14:51:07
    Writing application : mkvmerge v38.0.0 ('The Silent Type') 64-bit
    Writing library : libebml v1.3.9 + libmatroska v1.5.2
    Cover : Yes
    Attachments : Cover.jpg
    Video
    ID : 1
    Format : HEVC
    Format/Info : High Efficiency Video Coding
    Format profile : Main 10@L4.1@High
    Codec ID : V_MPEGH/ISO/HEVC
    Duration : 1 h 1 min
    Bit rate : 7 968 kb/s
    Width : 1 920 pixels
    Height : 1 080 pixels
    Display aspect ratio : 16:9
    Frame rate mode : Constant
    Frame rate : 23.976 (24000/1001) FPS
    Color space : YUV
    Chroma subsampling : 4:2:0
    Bit depth : 10 bits
    Bits/(Pixel*Frame) : 0.160
    Stream size : 3.43 GiB (73%)
    Title : Winter Is Coming
    Writing library : x265 3.1+11-de920e0a3183:[Mac OS X][clang 10.0.1][64 bit] 10bit
    Encoding settings : cpuid=1111039 / frame-threads=13 / wpp / no-pmode / no-pme / no-psnr / no-ssim / log-level=3 / input-csp=1 / input-res=1920x1080 / interlace=0 / total-frames=0 / level-idc=41 / high-tier=1 / uhd-bd=0 / ref=5 / allow-non-conformance / no-repeat-headers / annexb / no-aud / no-hrd / info / hash=0 / no-temporal-layers / open-gop / min-keyint=23 / keyint=240 / gop-lookahead=0 / bframes=15 / b-adapt=2 / b-pyramid / bframe-bias=0 / rc-lookahead=60 / lookahead-slices=0 / scenecut=40 / radl=0 / no-splice / no-intra-refresh / ctu=64 / min-cu-size=8 / rect / amp / max-tu-size=32 / tu-inter-depth=4 / tu-intra-depth=4 / limit-tu=1 / rdoq-level=2 / dynamic-rd=0.00 / no-ssim-rd / signhide / no-tskip / nr-intra=0 / nr-inter=0 / no-constrained-intra / no-strong-intra-smoothing / max-merge=5 / limit-refs=3 / no-limit-modes / me=3 / subme=7 / merange=57 / temporal-mvp / no-hme / weightp / weightb / no-analyze-src-pics / deblock=-3:-3 / no-sao / no-sao-non-deblock / rd=6 / no-early-skip / rskip / no-fast-intra / no-tskip-fast / no-cu-lossless / b-intra / no-splitrd-skip / rdpenalty=0 / psy-rd=2.00 / psy-rdoq=1.00 / no-rd-refine / no-lossless / cbqpoffs=0 / crqpoffs=0 / rc=crf / crf=19.8 / qcomp=0.60 / qpstep=4 / stats-write=0 / stats-read=0 / vbv-maxrate=50000 / vbv-bufsize=50000 / vbv-init=0.9 / crf-max=0.0 / crf-min=0.0 / ipratio=1.40 / pbratio=1.30 / aq-mode=2 / aq-strength=0.80 / no-cutree / zone-count=0 / no-strict-cbr / qg-size=32 / no-rc-grain / qpmax=69 / qpmin=0 / no-const-vbv / sar=1 / overscan=0 / videoformat=5 / range=0 / colorprim=2 / transfer=2 / colormatrix=2 / chromaloc=0 / display-window=0cll=0,0 / min-luma=0 / max-luma=1023 / log2-max-poc-lsb=8 / vui-timing-info / vui-hrd-info / slices=1 / no-opt-qp-pps / no-opt-ref-list-length-pps / no-multi-pass-opt-rps / scenecut-bias=0.00 / no-opt-cu-delta-qp / aq-motion / no-hdr / no-hdr-opt / no-dhdr10-opt / no-idr-recovery-sei / analysis-reuse-level=5 / scale-factor=0 / refine-intra=0 / refine-inter=0 / refine-mv=0 / refine-ctu-distortion=0 / no-limit-sao / ctu-info=0 / no-lowpass-dct / refine-analysis-type=0 / copy-pic=1 / max-ausize-factor=1.0 / no-dynamic-refine / no-single-sei / no-hevc-aq / no-svt / no-field / qp-adaptation-range=1.00
    Language : English
    Default : Yes
    Forced : No
    Color range : Limited
    Audio #1
    ID : 2
    Format : AC-3
    Format/Info : Audio Coding 3
    Commercial name : Dolby Digital
    Codec ID : A_AC3
    Duration : 1 h 1 min
    Bit rate mode : Constant
    Bit rate : 192 kb/s
    Channel(s) : 2 channels
    Channel layout : L R
    Sampling rate : 48.0 kHz
    Frame rate : 31.250 FPS (1536 SPF)
    Compression mode : Lossy
    Stream size : 84.6 MiB (2%)
    Title : Дубляж (Kravec)
    Language : Russian
    Service kind : Complete Main
    Default : Yes
    Forced : No
    Audio #2
    ID : 3
    Format : AC-3
    Format/Info : Audio Coding 3
    Commercial name : Dolby Digital
    Codec ID : A_AC3
    Duration : 1 h 1 min
    Bit rate mode : Constant
    Bit rate : 192 kb/s
    Channel(s) : 2 channels
    Channel layout : L R
    Sampling rate : 48.0 kHz
    Frame rate : 31.250 FPS (1536 SPF)
    Compression mode : Lossy
    Stream size : 84.6 MiB (2%)
    Title : Дубляж (Ren-TV)
    Language : Russian
    Service kind : Complete Main
    Default : No
    Forced : No
    Audio #3
    ID : 4
    Format : AC-3
    Format/Info : Audio Coding 3
    Commercial name : Dolby Digital
    Codec ID : A_AC3
    Duration : 1 h 1 min
    Bit rate mode : Constant
    Bit rate : 640 kb/s
    Channel(s) : 6 channels
    Channel layout : L R C LFE Ls Rs
    Sampling rate : 48.0 kHz
    Frame rate : 31.250 FPS (1536 SPF)
    Compression mode : Lossy
    Stream size : 282 MiB (6%)
    Title : MVO (AlexFilm)
    Language : Russian
    Service kind : Complete Main
    Default : No
    Forced : No
    Audio #4
    ID : 5
    Format : AC-3
    Format/Info : Audio Coding 3
    Commercial name : Dolby Digital
    Codec ID : A_AC3
    Duration : 1 h 1 min
    Bit rate mode : Constant
    Bit rate : 640 kb/s
    Channel(s) : 6 channels
    Channel layout : L R C LFE Ls Rs
    Sampling rate : 48.0 kHz
    Frame rate : 31.250 FPS (1536 SPF)
    Compression mode : Lossy
    Stream size : 282 MiB (6%)
    Title : MVO (LostFilm)
    Language : Russian
    Service kind : Complete Main
    Default : No
    Forced : No
    Audio #5
    ID : 6
    Format : AC-3
    Format/Info : Audio Coding 3
    Commercial name : Dolby Digital
    Codec ID : A_AC3
    Duration : 1 h 1 min
    Bit rate mode : Constant
    Bit rate : 640 kb/s
    Channel(s) : 6 channels
    Channel layout : L R C LFE Ls Rs
    Sampling rate : 48.0 kHz
    Frame rate : 31.250 FPS (1536 SPF)
    Compression mode : Lossy
    Stream size : 282 MiB (6%)
    Title : MVO (FoxLife)
    Language : Russian
    Service kind : Complete Main
    Default : No
    Forced : No
    Audio #6
    ID : 7
    Format : AC-3
    Format/Info : Audio Coding 3
    Commercial name : Dolby Digital
    Codec ID : A_AC3
    Duration : 1 h 1 min
    Bit rate mode : Constant
    Bit rate : 640 kb/s
    Channel(s) : 6 channels
    Channel layout : L R C LFE Ls Rs
    Sampling rate : 48.0 kHz
    Frame rate : 31.250 FPS (1536 SPF)
    Compression mode : Lossy
    Stream size : 282 MiB (6%)
    Title : Original
    Language : English
    Service kind : Complete Main
    Default : No
    Forced : No
    Text #1
    ID : 8
    Format : ASS
    Codec ID : S_TEXT/ASS
    Codec ID/Info : Advanced Sub Station Alpha
    Duration : 51 min 35 s
    Bit rate : 2 b/s
    Count of elements : 12
    Compression mode : Lossless
    Stream size : 946 Bytes (0%)
    Title : Forced
    Language : Russian
    Default : Yes
    Forced : No
    Text #2
    ID : 9
    Format : UTF-8
    Codec ID : S_TEXT/UTF8
    Codec ID/Info : UTF-8 Plain Text
    Duration : 59 min 32 s
    Bit rate : 66 b/s
    Count of elements : 548
    Stream size : 29.1 KiB (0%)
    Title : Full (7kingdoms)
    Language : Russian
    Default : No
    Forced : No
    Text #3
    ID : 10
    Format : UTF-8
    Codec ID : S_TEXT/UTF8
    Codec ID/Info : UTF-8 Plain Text
    Duration : 58 min 29 s
    Bit rate : 40 b/s
    Count of elements : 555
    Stream size : 17.2 KiB (0%)
    Title : Full
    Language : English
    Default : No
    Forced : No
    Menu
    00:00:00.000 : :Chapter 1
    00:00:06.006 : :Chapter 2
    00:07:16.435 : :Chapter 3
    00:08:56.534 : :Chapter 4
    00:18:14.510 : :Chapter 5
    00:28:46.558 : :Chapter 6
    00:39:35.581 : :Chapter 7
    00:50:00.038 : :Chapter 8
    01:00:32.628 : :Chapter 9
    -

    _________________
    Показать сообщения:    
    Главная  Сериалы  Американские и Европейские сериалы

    Текущее время: 12-Дек 00:30

    Часовой пояс: UTC + 5



    Вы не можете начинать темы
    Вы не можете отвечать на сообщения
    Вы не можете редактировать свои сообщения
    Вы не можете удалять свои сообщения
    Вы не можете голосовать в опросах
    Вы не можете прикреплять файлы к сообщениям
    Вы не можете скачивать файлы