Гастон / Gaston Lagaffe (Пьер-Франсуа Мартен-Лаваль / Pierre-Francois Martin-Laval) [2018, Комедия, BDRip 720p] iTunes :: UZTOR.PW Лучший трекер в зоне TAS-IX!
Регистрация ·
Имя: Пароль:  
· Забыли пароль?
Уважаемые гости сайта! Добро Пожаловать на наш торрент трекер,где Вы можете бесплатно скачать любой Софт,Фильмы,Музыку и многое другое! А так же постоянно ведется набор модераторов и релизеров. Зарегистрируйтесь сейчас, чтобы получить доступ ко всем функциям. После регистрации или входа на сайт вы сможете создавать темы, отвечать на сообщения и скачивать файлы.

Навигация по Торрент раздачам и Форум

До нового обновления Торрент-Трекер осталось

 Гастон / Gaston Lagaffe (Пьер-Франсуа Мартен-Лаваль / Pierre-Francois Martin-Laval) [2018, Комедия, BDRip 720p] iTunes

Главная  Кинофильмы  Зарубежные кинофильмы  HD
Статистика раздачи
Нет
 
     
 
 
Автор Сообщение
  • NuRKHoNoFF ®
  • Не в сети
  • 5064
  • Пол: Мужской

  • Стаж: 11 месяцев 23 дня

  • Сообщений: 919

  • Откуда: Каттакурган

  • Провайдер: TPS TPS

  • Карма: 583


  • Наличие запрета:

  • Награды: 17 (Подробнее)
    Активный релизер 1 (Количество: 1) Активный релизер 2 (Количество: 1) Активный релизер 3 (Количество: 1) Активный релизер 4 (Количество: 1) Активный релизер 5 (Количество: 1)
  • Создавать темы 26-Ноя-2019 15:34

    Гастон / Gaston Lagaffe -Год выпуска: 2018
    Страна: Франция, Бельгия
    Жанр: Комедия
    Продолжительность: 01:22:31
    Перевод: Профессиональный (многоголосый, закадровый) [iTunes]-Субтитры: French-Режиссер: Пьер-Франсуа Мартен-Лаваль / Pierre-Francois Martin-Laval-В ролях: Тео Фернандез, Пьер-Франсуа Мартен-Лаваль, Арно Дюкре, Жером Коммандёр, Алисон Вилер, Кристоф Канар, Франк Брюно, Мака Сидибе, Себастьян Шассейн, Шарлотта Габрис-Описание: Придя стажироваться в Aupeticoin, юный Гастон кардинально меняет безликую повседневность своих коллег. Он создает им новые гаджеты для оптимизации времени, заботится об экологичной атмосфере в офисе, и спит на работе весь день напролет. Однако его творческие порывы до жути выбешивают его босса, который никак не может найти дельный предлог, чтобы уволить обаятельного лоботряса.- -Качество: BDRip 720p
    Формат: MKV
    Видео: AVC, 6200 Kb/s, 1280х692
    Аудио №1: AC3, 6 ch, 384 kbps | RUS
    Аудио №2: DTS, 6 ch, 1509 kbps | FRE-

    MediaInfo

    General
    Unique ID : 194243236335452862823752242513110265859 (0x9221E2F3FA726BF5B28FE83C201E7003)
    Complete name : Gaston.Lagaffe.2018.720p.BluRay.ELEKTRI4KA.UNIONGANG.mkv
    Format : Matroska
    Format version : Version 4
    File size : 4.67 GiB
    Duration : 1 h 22 min
    Overall bit rate : 8 110 kb/s
    Encoded date : UTC 2019-11-25 22:58:05
    Writing application : mkvmerge v8.3.0 ('Over the Horizon') 64bit
    Writing library : libebml v1.3.1 + libmatroska v1.4.2
    Video
    ID : 1
    Format : AVC
    Format/Info : Advanced Video Codec
    Format profile : High@L4.1
    Format settings : CABAC / 8 Ref Frames
    Format settings, CABAC : Yes
    Format settings, Reference frames : 8 frames
    Codec ID : V_MPEG4/ISO/AVC
    Duration : 1 h 22 min
    Bit rate : 6 200 kb/s
    Width : 1 280 pixels
    Height : 692 pixels
    Display aspect ratio : 1.85:1
    Frame rate mode : Constant
    Frame rate : 24.000 FPS
    Color space : YUV
    Chroma subsampling : 4:2:0
    Bit depth : 8 bits
    Scan type : Progressive
    Bits/(Pixel*Frame) : 0.292
    Stream size : 3.57 GiB (76%)
    Title : ELEKTRI4KA.UNIONGANG
    Writing library : x264 core 152 r2851 ba24899
    Encoding settings : cabac=1 / ref=8 / deblock=1:-3:-3 / analyse=0x3:0x133 / me=umh / subme=9 / psy=1 / psy_rd=1.05:0.00 / mixed_ref=1 / me_range=32 / chroma_me=1 / trellis=2 / 8x8dct=1 / cqm=0 / deadzone=21,11 / fast_pskip=0 / chroma_qp_offset=-2 / threads=18 / lookahead_threads=2 / sliced_threads=0 / nr=0 / decimate=0 / interlaced=0 / bluray_compat=0 / constrained_intra=0 / bframes=5 / b_pyramid=2 / b_adapt=2 / b_bias=0 / direct=3 / weightb=1 / open_gop=0 / weightp=2 / keyint=240 / keyint_min=24 / scenecut=40 / intra_refresh=0 / rc_lookahead=60 / rc=2pass / mbtree=1 / bitrate=6200 / ratetol=1.0 / qcomp=0.60 / qpmin=0 / qpmax=69 / qpstep=4 / cplxblur=20.0 / qblur=0.5 / vbv_maxrate=62500 / vbv_bufsize=78125 / nal_hrd=none / filler=0 / ip_ratio=1.40 / aq=1:0.80
    Language : English
    Default : Yes
    Forced : No
    Audio #1
    ID : 2
    Format : AC-3
    Format/Info : Audio Coding 3
    Commercial name : Dolby Digital
    Codec ID : A_AC3
    Duration : 1 h 22 min
    Bit rate mode : Constant
    Bit rate : 384 kb/s
    Channel(s) : 6 channels
    Channel layout : L R C LFE Ls Rs
    Sampling rate : 48.0 kHz
    Frame rate : 31.250 FPS (1536 SPF)
    Bit depth : 16 bits
    Compression mode : Lossy
    Stream size : 227 MiB (5%)
    Title : iTunes (ELEKTRI4KA.UNIONGANG)
    Language : Russian
    Service kind : Complete Main
    Default : Yes
    Forced : No
    Audio #2
    ID : 3
    Format : DTS
    Format/Info : Digital Theater Systems
    Codec ID : A_DTS
    Duration : 1 h 22 min
    Bit rate mode : Constant
    Bit rate : 1 509 kb/s
    Channel(s) : 6 channels
    Channel layout : C L R Ls Rs LFE
    Sampling rate : 48.0 kHz
    Frame rate : 93.750 FPS (512 SPF)
    Bit depth : 24 bits
    Compression mode : Lossy
    Stream size : 891 MiB (19%)
    Language : French
    Default : No
    Forced : No
    Text
    ID : 4
    Format : PGS
    Muxing mode : zlib
    Codec ID : S_HDMV/PGS
    Codec ID/Info : Picture based subtitle format used on BDs/HD-DVDs
    Duration : 1 h 22 min
    Bit rate : 15.6 kb/s
    Count of elements : 3170
    Stream size : 9.20 MiB (0%)
    Language : French
    Default : No
    Forced : No


    _________________
    Показать сообщения:    
    Главная  Кинофильмы  Зарубежные кинофильмы  HD

    Текущее время: 10-Дек 04:45

    Часовой пояс: UTC + 5



    Вы не можете начинать темы
    Вы не можете отвечать на сообщения
    Вы не можете редактировать свои сообщения
    Вы не можете удалять свои сообщения
    Вы не можете голосовать в опросах
    Вы не можете прикреплять файлы к сообщениям
    Вы не можете скачивать файлы