Спартак: Коллекция / Spartacus: Collection (Джесси Уарн, Майкл Херст, Рик Джейкобсон) [Сезонов 1-4] [Серии 1-39 из 39] [2010-2013, Боевик, драма, приключения, биография, история, BDRip-HEVC 1080p] | LostFilm :: UZTOR.PW Лучший трекер в зоне TAS-IX!
Регистрация ·
Имя: Пароль:  
· Забыли пароль?
Уважаемые гости сайта! Добро Пожаловать на наш торрент трекер,где Вы можете бесплатно скачать любой Софт,Фильмы,Музыку и многое другое! А так же постоянно ведется набор модераторов и релизеров. Зарегистрируйтесь сейчас, чтобы получить доступ ко всем функциям. После регистрации или входа на сайт вы сможете создавать темы, отвечать на сообщения и скачивать файлы.

Навигация по Торрент раздачам и Форум

До нового обновления Торрент-Трекер осталось

 Спартак: Коллекция / Spartacus: Collection (Джесси Уарн, Майкл Херст, Рик Джейкобсон) [Сезонов 1-4] [Серии 1-39 из 39] [2010-2013, Боевик, драма, приключения, биография, история, BDRip-HEVC 1080p] | LostFilm

Главная  Сериалы  Американские и Европейские сериалы
Статистика раздачи
Скачал: [ 1 ]
 
     
 
 
Автор Сообщение
  • -InVoKeR- ®
  • Не в сети
  • 5057
  • VIP пользователь

  • Пол: Мужской

  • Стаж: 1 год

  • Сообщений: 420

  • Откуда: uztor.pw

  • Провайдер: UzOnline UzOnline

  • Тарифный план: Unlim 4 (Мир: 4 Мбит/с, Tas-ix: 100Мбит/с)

  • Steam: 76561198442747843

  • Telegram: i_Invoker

  • Карма: 1128


  • Наличие запрета:

  • Награды: 22 (Подробнее)
    Admin (Количество: 1) Авторитет (Количество: 1) Активный релизер 1 (Количество: 1) Активный релизер 2 (Количество: 1) Активный сидер 1 (Количество: 1)
  • Создавать темы 24-Ноя-2019 01:16

    -- Страна: США
    Производство: Starz Media, Starz Productions
    Год выпуска: 2010–2013
    Жанр: боевик, драма, приключения, биография, история
    Сезоны: 1-4
    Серии: 1-39 (из 39)
    Продолжительность: 39х ~00:55:00
    Перевод: Профессиональный (многоголосый, закадровый) | LostFilm-Режиссеры: Джесси Уарн, Майкл Херст, Рик Джейкобсон-В ролях: Энди Уитфилд, Лиам МакИнтайр, Ману Беннетт, Дастин Клер, Дэниел Фьюрригал, Ник Е. Тарабэй, Джон Ханна, Люси Лоулесс, Вива Бьянка, Питер Менса-Описание: «Спартак» — это жесткий и выразительный рассказ о самом знаменитом из римских гладиаторов. Спартака разлучили с любовью всей его жизни и заставили выходить на арену, где смерть — лучшее развлечение для толпы. Спартак должен бороться за выживание, подружиться с врагами, и усвоить политику нового мира жестокости, секса и славы. Его будут соблазнять властью и изводить местью. Но его страсть даст ему силы преодолеть все испытания в этой истории о смерти, чести и стойкости...-Качество: BDRip HEVC 1080p
    Формат: МР4
    Видео: 1920x1080 (16:9), 23.976 fps,MPEG-4 HEVC ~3000 kbps
    Аудио: 48.0 kHz, Advanced Audio Codec LC, 2/0 (L,R) ch, ~192 kbps avg--

    MediaInfo

    Формат : MPEG-4
    Профиль формата : Base Media
    Идентификатор кодека : isom
    Размер файла : 1,21 Гбайт
    Продолжительность : 54 м.
    Режим общего битрейта : Переменный
    Общий поток : 3158 Кбит/сек
    Программа кодирования : Lavf55.37.101
    Видео
    Идентификатор : 1
    Формат : HEVC
    Формат/Информация : High Efficiency Video Coding
    Профиль формата : Main@L4@Main
    Идентификатор кодека : hev1
    Идентификатор кодека/Информация : High Efficiency Video Coding
    Продолжительность : 54 м.
    Битрейт : 2987 Кбит/сек
    Ширина : 1920 пикселей
    Высота : 1080 пикселей
    Соотношение сторон : 16:9
    Режим частоты кадров : Постоянный
    Частота кадров : 23,976 кадра/сек
    Цветовое пространство : YUV
    Субдискретизация насыщенности : 4:2:0
    Битовая глубина : 8 бит
    Тип развёртки : Прогрессивная
    Бит/(Пиксели*Кадры) : 0.060
    Размер потока : 1,15 Гбайт (95%)
    Аудио
    Идентификатор : 2
    Формат : AAC
    Формат/Информация : Advanced Audio Codec
    Профиль формата : LC
    Идентификатор кодека : 40
    Продолжительность : 54 м.
    Вид битрейта : Переменный
    Битрейт : 165 Кбит/сек
    Максимальный битрейт : 192 Кбит/сек
    Каналы : 2 канала
    Расположение каналов : Front: L R
    Частота : 48,0 КГц
    Метод сжатия : С потерями
    Размер потока : 65,0 Мбайт (5%)
    Язык : Russian

    _________________
    Показать сообщения:    
    Главная  Сериалы  Американские и Европейские сериалы

    Текущее время: 07-Дек 16:44

    Часовой пояс: UTC + 5



    Вы не можете начинать темы
    Вы не можете отвечать на сообщения
    Вы не можете редактировать свои сообщения
    Вы не можете удалять свои сообщения
    Вы не можете голосовать в опросах
    Вы не можете прикреплять файлы к сообщениям
    Вы не можете скачивать файлы