Песнь дьявола / A Dark Song (Лайам Гэвин / Liam Gavin) [2016, Ужасы, драма, WEB-DL 1080р] iTunes :: UZTOR.PW Лучший трекер в зоне TAS-IX!
Регистрация ·
Имя: Пароль:  
· Забыли пароль?
Уважаемые гости сайта! Добро Пожаловать на наш торрент трекер,где Вы можете бесплатно скачать любой Софт,Фильмы,Музыку и многое другое! А так же постоянно ведется набор модераторов и релизеров. Зарегистрируйтесь сейчас, чтобы получить доступ ко всем функциям. После регистрации или входа на сайт вы сможете создавать темы, отвечать на сообщения и скачивать файлы.

Навигация по Торрент раздачам и Форум

До нового обновления Торрент-Трекер осталось

 Песнь дьявола / A Dark Song (Лайам Гэвин / Liam Gavin) [2016, Ужасы, драма, WEB-DL 1080р] iTunes

Главная  Кинофильмы  Зарубежные кинофильмы  HD
Статистика раздачи
Нет
 
     
 
 
Автор Сообщение
  • NuRKHoNoFF ®
  • Не в сети
  • 5064
  • Пол: Мужской

  • Стаж: 11 месяцев 23 дня

  • Сообщений: 919

  • Откуда: Каттакурган

  • Провайдер: TPS TPS

  • Карма: 583


  • Наличие запрета:

  • Награды: 17 (Подробнее)
    Активный релизер 1 (Количество: 1) Активный релизер 2 (Количество: 1) Активный релизер 3 (Количество: 1) Активный релизер 4 (Количество: 1) Активный релизер 5 (Количество: 1)
  • Создавать темы 24-Ноя-2019 00:24

    Песнь дьявола / A Dark Song -Год выпуска: 2016
    Страна: Ирландия
    Жанр: Ужасы, драма
    Продолжительность: 01:39:44
    Перевод: Дублированный [iTunes]-Режиссер: Лайам Гэвин / Liam Gavin-В ролях: Марк Хубермэн, Катрин Уолкер, Стив Орам, Сьюзэн Лунейн, Натан Вос, Мартина Нанварова, Бреффни О'Коннор, Шейла Молони-Описание: София арендует загородный особняк в глуши и приглашает туда для некоего тёмного обряда оккультиста Джозефа. Сначала тот отказывается проводить обряд, но узнав, что женщина потеряла сына и хочет таким образом с ним пообщаться, соглашается. София закупается едой на полгода, оккультист запечатывает соляным кругом дом, и теперь обратного пути нет — что бы ни произошло, они должны довести начатое до конца, прежде чем выйти наружу...
    - -Качество: WEB-DL 1080р
    Формат: MKV
    Видео: AVC, 5100 Kb/s, 1920х802
    Аудио: AC3, 6 ch, 384 kbps-

    MediaInfo

    General
    Unique ID : 202460578305355940213467456545334174651 (0x98507D312D308D68934A0CDB394723BB)
    Complete name : Pesn.dyavola.2016.WEB-DL.1080p.ELEKTRI4KA.UNIONGANG.mkv
    Format : Matroska
    Format version : Version 4
    File size : 3.83 GiB
    Duration : 1 h 39 min
    Overall bit rate : 5 495 kb/s
    Encoded date : UTC 2019-11-23 11:24:04
    Writing application : mkvmerge v8.3.0 ('Over the Horizon') 64bit
    Writing library : libebml v1.3.1 + libmatroska v1.4.2
    Video
    ID : 1
    Format : AVC
    Format/Info : Advanced Video Codec
    Format profile : High@L4
    Format settings : CABAC / 4 Ref Frames
    Format settings, CABAC : Yes
    Format settings, Reference frames : 4 frames
    Codec ID : V_MPEG4/ISO/AVC
    Duration : 1 h 39 min
    Bit rate : 5 120 kb/s
    Width : 1 920 pixels
    Height : 802 pixels
    Display aspect ratio : 2.40:1
    Frame rate mode : Constant
    Frame rate : 24.000 FPS
    Color space : YUV
    Chroma subsampling : 4:2:0
    Bit depth : 8 bits
    Scan type : Progressive
    Bits/(Pixel*Frame) : 0.139
    Stream size : 3.56 GiB (93%)
    Title : ELEKTRI4KA.UNIONGANG
    Writing library : x264 core 148
    Encoding settings : cabac=1 / ref=3 / deblock=1:0:0 / analyse=0x3:0x113 / me=hex / subme=7 / psy=1 / psy_rd=1.00:0.00 / mixed_ref=1 / me_range=16 / chroma_me=1 / trellis=1 / 8x8dct=1 / cqm=0 / deadzone=21,11 / fast_pskip=1 / chroma_qp_offset=-2 / threads=25 / lookahead_threads=4 / sliced_threads=0 / nr=0 / decimate=1 / interlaced=0 / bluray_compat=0 / constrained_intra=0 / bframes=6 / b_pyramid=2 / b_adapt=1 / b_bias=0 / direct=1 / weightb=1 / open_gop=0 / weightp=2 / keyint=48 / keyint_min=25 / scenecut=0 / intra_refresh=0 / rc_lookahead=40 / rc=2pass / mbtree=1 / bitrate=5120 / ratetol=1.0 / qcomp=0.60 / qpmin=0 / qpmax=69 / qpstep=4 / cplxblur=20.0 / qblur=0.5 / vbv_maxrate=7680 / vbv_bufsize=20480 / nal_hrd=none / filler=0 / ip_ratio=1.40 / aq=1:1.00
    Language : English
    Default : Yes
    Forced : No
    Audio
    ID : 2
    Format : AC-3
    Format/Info : Audio Coding 3
    Commercial name : Dolby Digital
    Codec ID : A_AC3
    Duration : 1 h 39 min
    Bit rate mode : Constant
    Bit rate : 384 kb/s
    Channel(s) : 6 channels
    Channel layout : L R C LFE Ls Rs
    Sampling rate : 48.0 kHz
    Frame rate : 31.250 FPS (1536 SPF)
    Bit depth : 16 bits
    Compression mode : Lossy
    Stream size : 274 MiB (7%)
    Title : iTunes (ELEKTRI4KA.UNIONGANG)
    Language : Russian
    Service kind : Complete Main
    Default : Yes
    Forced : No


    _________________
    Показать сообщения:    
    Главная  Кинофильмы  Зарубежные кинофильмы  HD

    Текущее время: 10-Дек 05:17

    Часовой пояс: UTC + 5



    Вы не можете начинать темы
    Вы не можете отвечать на сообщения
    Вы не можете редактировать свои сообщения
    Вы не можете удалять свои сообщения
    Вы не можете голосовать в опросах
    Вы не можете прикреплять файлы к сообщениям
    Вы не можете скачивать файлы