Форсаж: Хоббс и Шоу / Fast & Furious Presents: Hobbs & Shaw (Дэвид Литч / David Leitch) [2019, Боевик, приключения, BDRip-AVC] | Лицензия :: UZTOR.PW Лучший трекер в зоне TAS-IX!
Регистрация ·
Имя: Пароль:  
· Забыли пароль?
Уважаемые гости сайта! Добро Пожаловать на наш торрент трекер,где Вы можете бесплатно скачать любой Софт,Фильмы,Музыку и многое другое! А так же постоянно ведется набор модераторов и релизеров. Зарегистрируйтесь сейчас, чтобы получить доступ ко всем функциям. После регистрации или входа на сайт вы сможете создавать темы, отвечать на сообщения и скачивать файлы.

Навигация по Торрент раздачам и Форум

До нового обновления Торрент-Трекер осталось

 Форсаж: Хоббс и Шоу / Fast & Furious Presents: Hobbs & Shaw (Дэвид Литч / David Leitch) [2019, Боевик, приключения, BDRip-AVC] | Лицензия

Главная  Кинофильмы  Зарубежные кинофильмы  HD-AVC
Статистика раздачи
Нет
 
     
 
 
Автор Сообщение
  • -InVoKeR- ®
  • Не в сети
  • 5057
  • VIP пользователь

  • Пол: Мужской

  • Стаж: 1 год

  • Сообщений: 422

  • Откуда: uztor.pw

  • Провайдер: UzOnline UzOnline

  • Тарифный план: Unlim 4 (Мир: 4 Мбит/с, Tas-ix: 100Мбит/с)

  • Steam: 76561198442747843

  • Telegram: i_Invoker

  • Карма: 1128


  • Наличие запрета:

  • Награды: 22 (Подробнее)
    Admin (Количество: 1) Авторитет (Количество: 1) Активный релизер 1 (Количество: 1) Активный релизер 2 (Количество: 1) Активный сидер 1 (Количество: 1)
  • Создавать темы 23-Ноя-2019 12:52

    Форсаж: Хоббс и Шоу
    Fast & Furious Presents: Hobbs & Shaw
    -- Год выпуска: 2019
    Страна: США
    Жанр: боевик, приключения
    Продолжительность: 02:15:55
    Перевод: Дублированный Лицензия
    Субтитры: Русские форсированные (вшиты)-Режиссер: Дэвид Литч / David Leitch-В ролях: Дуэйн Джонсон, Джейсон Стэйтем, Идрис Эльба, Ванесса Кирби, Хелен Миррен, Эйса Гонсалес, Эдди Марсан, Элиана Суа, Клифф Кёртис, Лори Пеленис Туисано-Описание: Люк Хоббс - американский элитный спецагент, он любит удобную спортивную одежду, большие пикапы и здоровое питание. Декард Шоу - британский пижон, бывший сотрудник разведки, предпочитает дорогие костюмы, спортивные авто и длинноногих красоток. Эти двое ненавидят друг друга. Но если кто-то угрожает их семьям, они готовы пойти на все. Даже на работу в команде.-Качество: BDRip-AVC
    Формат: MKV
    Видео: 1024x428 (2.40:1), 23,976 fps, x264 ~1 782 kbps avg, 0.170 bit/pixel
    Аудио: 48 kHz, AC3 Dolby Digital, 3/2 (L,C,R,l,r) + LFE ch, ~448.00 kbps avg--

    MediaInfo

    Общее
    Уникальный идентификатор : 321456145077139762366574375849128479539 (0xF1D6339982B3667BF70441831315CB33)
    Полное имя : F:OlLanDGroupFast.&.Furious.Presents.Hobbs.&.Shaw.2019.BDRip(AVC).OlLanDGroup.mkv
    Формат : Matroska
    Версия формата : Version 4 / Version 2
    Размер файла : 2,13 Гбайт
    Продолжительность : 2 ч. 16 м.
    Общий поток : 2232 Кбит/сек
    Название фильма : Fast.&.Furious.Presents.Hobbs.&.Shaw.2019 #TorpedoUK#
    Дата кодирования : UTC 2019-11-22 22:54:13
    Программа кодирования : mkvmerge v29.0.0 ('Like It Or Not') 64-bit
    Библиотека кодирования : libebml v1.3.6 + libmatroska v1.4.9
    Видео
    Идентификатор : 1
    Формат : AVC
    Формат/Информация : Advanced Video Codec
    Профиль формата : High@L4.1
    Параметр CABAC формата : Да
    Параметр ReFrames формата : 10 кадров
    Идентификатор кодека : V_MPEG4/ISO/AVC
    Продолжительность : 2 ч. 16 м.
    Битрейт : 1782 Кбит/сек
    Ширина : 1024 пикселя
    Высота : 428 пикселей
    Соотношение сторон : 2,40:1
    Режим частоты кадров : Постоянный
    Частота кадров : 23,976 (24000/1001) кадра/сек
    Цветовое пространство : YUV
    Субдискретизация насыщенности : 4:2:0
    Битовая глубина : 8 бит
    Тип развёртки : Прогрессивная
    Бит/(Пиксели*Кадры) : 0.170
    Размер потока : 1,70 Гбайт (80%)
    Библиотека кодирования : x264 core 146 r2538 121396c
    Настройки программы : cabac=1 / ref=10 / deblock=1:-3:-3 / analyse=0x3:0x113 / me=umh / subme=11 / psy=1 / psy_rd=1.00:0.03 / mixed_ref=1 / me_range=48 / chroma_me=1 / trellis=2 / 8x8dct=1 / cqm=0 / deadzone=21,11 / fast_pskip=1 / chroma_qp_offset=-6 / threads=6 / lookahead_threads=1 / sliced_threads=0 / nr=0 / decimate=1 / interlaced=0 / bluray_compat=0 / constrained_intra=0 / bframes=11 / b_pyramid=2 / b_adapt=2 / b_bias=0 / direct=3 / weightb=1 / open_gop=0 / weightp=2 / keyint=240 / keyint_min=23 / scenecut=40 / intra_refresh=0 / rc_lookahead=40 / rc=2pass / mbtree=0 / bitrate=1782 / ratetol=1.0 / qcomp=0.60 / qpmin=0 / qpmax=69 / qpstep=4 / cplxblur=20.0 / qblur=0.5 / vbv_maxrate=50000 / vbv_bufsize=62500 / nal_hrd=none / filler=0 / ip_ratio=1.40 / pb_ratio=1.30 / aq=1:1.00
    Язык : English
    Default : Да
    Forced : Нет
    Аудио
    Идентификатор : 2
    Формат : AC-3
    Формат/Информация : Audio Coding 3
    Расширение режима : CM (complete main)
    Параметр Endianness формата : Big
    Идентификатор кодека : A_AC3
    Продолжительность : 2 ч. 16 м.
    Вид битрейта : Постоянный
    Битрейт : 448 Кбит/сек
    Каналы : 6 каналов
    Расположение каналов : Front: L C R, Side: L R, LFE
    Частота : 48,0 КГц
    Частота кадров : 31,250 кадров/сек (1536 spf)
    Битовая глубина : 16 бит
    Метод сжатия : С потерями
    Размер потока : 438 Мбайт (20%)
    Заголовок : DUB [License]
    Язык : Russian
    Default : Да
    Forced : Нет
    Текст
    Идентификатор : 3
    Формат : UTF-8
    Идентификатор кодека : S_TEXT/UTF8
    Идентификатор кодека/Информация : UTF-8 Plain Text
    Продолжительность : 2 ч. 4 м.
    Битрейт : 1 бит/сек
    Count of elements : 48
    Размер потока : 1,42 Кбайт (0%)
    Заголовок : Forced
    Язык : Russian
    Default : Да
    Forced : Нет
    Меню
    00:00:00.000 : :Глава 01
    00:04:58.131 : :Глава 02
    00:13:43.489 : :Глава 03
    00:19:21.451 : :Глава 04
    00:26:45.979 : :Глава 05
    00:35:41.514 : :Глава 06
    00:40:13.244 : :Глава 07
    00:46:22.029 : :Глава 08
    00:51:34.216 : :Глава 09
    00:57:51.801 : :Глава 10
    01:01:53.251 : :Глава 11
    01:08:45.162 : :Глава 12
    01:14:22.833 : :Глава 13
    01:19:48.074 : :Глава 14
    01:24:59.260 : :Глава 15
    01:32:58.197 : :Глава 16
    01:38:48.923 : :Глава 17
    01:46:32.969 : :Глава 18
    01:53:29.594 : :Глава 19
    02:01:14.809 : :Глава 20

    _________________
    Показать сообщения:    
    Главная  Кинофильмы  Зарубежные кинофильмы  HD-AVC

    Текущее время: 10-Дек 19:10

    Часовой пояс: UTC + 5



    Вы не можете начинать темы
    Вы не можете отвечать на сообщения
    Вы не можете редактировать свои сообщения
    Вы не можете удалять свои сообщения
    Вы не можете голосовать в опросах
    Вы не можете прикреплять файлы к сообщениям
    Вы не можете скачивать файлы