Сестренка (Александр Галибин) [2019, Драма, военный, WEB-DL 1080p] iTunes :: UZTOR.PW Лучший трекер в зоне TAS-IX!
Регистрация ·
Имя: Пароль:  
· Забыли пароль?
Уважаемые гости сайта! Добро Пожаловать на наш торрент трекер,где Вы можете бесплатно скачать любой Софт,Фильмы,Музыку и многое другое! А так же постоянно ведется набор модераторов и релизеров. Зарегистрируйтесь сейчас, чтобы получить доступ ко всем функциям. После регистрации или входа на сайт вы сможете создавать темы, отвечать на сообщения и скачивать файлы.

Навигация по Торрент раздачам и Форум

До нового обновления Торрент-Трекер осталось

 Сестренка (Александр Галибин) [2019, Драма, военный, WEB-DL 1080p] iTunes

Главная  Кинофильмы  Российские кинофильмы  HD
Статистика раздачи
Нет
 
     
 
 
Автор Сообщение
  • -InVoKeR- ®
  • Не в сети
  • 5057
  • VIP пользователь

  • Пол: Мужской

  • Стаж: 1 год

  • Сообщений: 423

  • Откуда: uztor.pw

  • Провайдер: UzOnline UzOnline

  • Тарифный план: Unlim 4 (Мир: 4 Мбит/с, Tas-ix: 100Мбит/с)

  • Steam: 76561198442747843

  • Telegram: i_Invoker

  • Карма: 1128


  • Наличие запрета:

  • Награды: 22 (Подробнее)
    Admin (Количество: 1) Авторитет (Количество: 1) Активный релизер 1 (Количество: 1) Активный релизер 2 (Количество: 1) Активный сидер 1 (Количество: 1)
  • Создавать темы 22-Ноя-2019 20:30

    Сестренка-- Год выпуска: 2019
    Страна: Россия
    Жанр: драма, военный
    Продолжительность: 01:34:21
    Язык: Русский, iTunes-Режиссер: Александр Галибин-В ролях: Арслан Крымчурин, Марта Тимофеева, Юсуф Рахметов, Ильгиза Гильманова, Сулпан Абдрахимова, Рауис Загитов, Виталий Салий, Нажиба Искандарова, Руслан Хайсаров, Гульназ Хайсарова-О фильме: Сколько себя помнит Ямиль, война была всегда. Но Ямиль очень ждёт, когда она кончится - ведь тогда вернётся Отец, которого Ямиль знает только по фотографиям и письмам.
    Однажды Мама уезжает в далёкий город и привозит с собой молчаливую девочку Оксану и передает наказ Отца заботиться о ней, как о родной сестрёнке...- -Качество: WEB-DL 1080p
    Формат: MKV
    Видео: AVC, 1920x1038, ~5054 kbps, 24 fps
    Аудио: AC3, 48 kHz, 384 kbps, 6 ch--

    MediaInfo

    Общее
    Уникальный идентификатор : 243341205209929858624748437364864976669 (0xB711CFB6B62DCA33BCB7DC0B7668071D)
    Полное имя : SESTRENKA_2019_WEB-DL_1080p-BLUEBIRD.mkv
    Формат : Matroska
    Версия формата : Version 4 / Version 2
    Размер файла : 3,66 Гбайт
    Продолжительность : 1 ч. 34 м.
    Общий поток : 5549 Кбит/сек
    Название фильма : SESTRENKA_2019_WEB-DL_1080p-BLUEBIRD
    Дата кодирования : UTC 2019-10-19 18:16:54
    Программа кодирования : mkvmerge v6.9.1 ('Blue Panther') 32bit built on Apr 18 2014 18:15:44
    Библиотека кодирования : libebml v1.3.0 + libmatroska v1.4.1
    Обложка : Yes
    Attachments : cover.png
    Видео
    Идентификатор : 1
    Формат : AVC
    Формат/Информация : Advanced Video Codec
    Профиль формата : High@L4
    Параметр CABAC формата : Да
    Параметр ReFrames формата : 4 кадра
    Идентификатор кодека : V_MPEG4/ISO/AVC
    Продолжительность : 1 ч. 34 м.
    Битрейт : 5054 Кбит/сек
    Ширина : 1920 пикселей
    Высота : 1038 пикселей
    Соотношение сторон : 1,85:1
    Режим частоты кадров : Постоянный
    Частота кадров : 24,000 кадра/сек
    Цветовое пространство : YUV
    Субдискретизация насыщенности : 4:2:0
    Битовая глубина : 8 бит
    Тип развёртки : Прогрессивная
    Бит/(Пиксели*Кадры) : 0.106
    Размер потока : 3,33 Гбайт (91%)
    Заголовок : SESTRENKA_2019_WEB-DL_1080p-BLUEBIRD
    Язык : English
    Default : Да
    Forced : Нет
    Цветовой диапазон : Limited
    Основные цвета : BT.709
    Характеристики трансфера : BT.709
    Коэффициенты матрицы : BT.709
    Аудио
    Идентификатор : 2
    Формат : AC-3
    Формат/Информация : Audio Coding 3
    Расширение режима : CM (complete main)
    Параметр Endianness формата : Big
    Идентификатор кодека : A_AC3
    Продолжительность : 1 ч. 34 м.
    Вид битрейта : Постоянный
    Битрейт : 384 Кбит/сек
    Каналы : 6 каналов
    Расположение каналов : Front: L C R, Side: L R, LFE
    Частота : 48,0 КГц
    Частота кадров : 31,250 кадров/сек (1536 spf)
    Метод сжатия : С потерями
    Размер потока : 259 Мбайт (7%)
    Заголовок : [ORIGINAL] DD 5.1 @ 384 kbps (iTunes)
    Язык : Russian
    Default : Да
    Forced : Нет
    Меню
    00:00:00.000 : en:Глава 1
    00:08:16.291 : en:Глава 2
    00:16:26.374 : en:Глава 3
    00:24:36.707 : en:Глава 4
    00:32:37.915 : en:Глава 5
    00:40:42.956 : en:Глава 6
    00:48:45.414 : en:Глава 7
    00:57:04.747 : en:Глава 8
    01:05:41.205 : en:Глава 9
    01:14:32.996 : en:Глава 10
    01:23:01.079 : en:Глава 11

    _________________
    Показать сообщения:    
    Главная  Кинофильмы  Российские кинофильмы  HD

    Текущее время: 12-Дек 00:50

    Часовой пояс: UTC + 5



    Вы не можете начинать темы
    Вы не можете отвечать на сообщения
    Вы не можете редактировать свои сообщения
    Вы не можете удалять свои сообщения
    Вы не можете голосовать в опросах
    Вы не можете прикреплять файлы к сообщениям
    Вы не можете скачивать файлы