Та, которой не было / Celle que vous croyez (Сэфи Неббу / Sefi Nebbu) [2019, Драма, BDRip 720p] iTunes :: UZTOR.PW Лучший трекер в зоне TAS-IX!
Регистрация ·
Имя: Пароль:  
· Забыли пароль?
Уважаемые гости сайта! Добро Пожаловать на наш торрент трекер,где Вы можете бесплатно скачать любой Софт,Фильмы,Музыку и многое другое! А так же постоянно ведется набор модераторов и релизеров. Зарегистрируйтесь сейчас, чтобы получить доступ ко всем функциям. После регистрации или входа на сайт вы сможете создавать темы, отвечать на сообщения и скачивать файлы.

Навигация по Торрент раздачам и Форум

До нового обновления Торрент-Трекер осталось

 Та, которой не было / Celle que vous croyez (Сэфи Неббу / Sefi Nebbu) [2019, Драма, BDRip 720p] iTunes

Главная  Кинофильмы  Зарубежные кинофильмы  HD
Статистика раздачи
Нет
 
     
 
 
Автор Сообщение
  • NuRKHoNoFF ®
  • Не в сети
  • 5064
  • Пол: Мужской

  • Стаж: 11 месяцев 23 дня

  • Сообщений: 919

  • Откуда: Каттакурган

  • Провайдер: TPS TPS

  • Карма: 583


  • Наличие запрета:

  • Награды: 17 (Подробнее)
    Активный релизер 1 (Количество: 1) Активный релизер 2 (Количество: 1) Активный релизер 3 (Количество: 1) Активный релизер 4 (Количество: 1) Активный релизер 5 (Количество: 1)
  • Создавать темы 22-Ноя-2019 20:03

    Та, которой не было / Celle que vous croyez -Год выпуска: 2019
    Страна: Франция, Бельгия
    Жанр: Драма
    Продолжительность: 01:41:35
    Перевод: Дублированный [iTunes]-Режиссер: Сэфи Неббу / Sefi Nebbu-В ролях: Жюльетт Бинош, Николь Гарсиа, Франсуа Сивиль, Мари-Анж Каста, Гийом Гуи, Шарль Берлинг, Жуль Уплен, Жюль Гозлен, Френсис Леплей, Пьер Жиро-Описание: Несколько лет назад Клэр тяжело пережила измену мужа и развод. Постепенно ее жизнь наладилась: она преподает в университете, воспитывает двух мальчиков и встречается с молодым любовником. Но однажды тот, высмеяв ее чувства, исчезает. Мир Клэр рассыпается на осколки. Желание спастись от отчаяния — это прямая дорога к психоаналитику или… создание фальшивого профиля в фейсбуке. Здесь она предстает 24-летней сексуальной красавицей Кларой. И очень скоро у нее завязываются виртуальные отношения с молодым фотографом Алексом. Кокетливый трёп перерастает во взаимную привязанность, а потом и в настоящую страсть…- -Качество: BDRip 720p
    Формат: MKV
    Видео: AVC, 4000 Кb/s, 1280х536
    Аудио №1: AC3, 6 ch, 384 kbps | RUS
    Аудио №2: AC3, 6 ch, 640 kbps | FRE-

    MediaInfo

    General
    Unique ID : 198298775485948345136291726336387850323 (0x952EF4788B860F6DA997BE301AC62053)
    Complete name : Ta.kotoroy.ne.byilo.2019.BDRip.720p.ELEKTRI4KA.UNIONGANG
    Format : Matroska
    Format version : Version 4
    File size : 3.56 GiB
    Duration : 1 h 41 min
    Overall bit rate : 5 018 kb/s
    Movie name : Celle que vous croyez BDRip 720p pk
    Encoded date : UTC 2019-11-22 09:55:18
    Writing application : mkvmerge v8.3.0 ('Over the Horizon') 64bit
    Writing library : libebml v1.3.1 + libmatroska v1.4.2
    Video
    ID : 1
    Format : AVC
    Format/Info : Advanced Video Codec
    Format profile : High@L4.1
    Format settings : CABAC / 12 Ref Frames
    Format settings, CABAC : Yes
    Format settings, ReFrames : 12 frames
    Codec ID : V_MPEG4/ISO/AVC
    Duration : 1 h 41 min
    Bit rate : 4 000 kb/s
    Width : 1 280 pixels
    Height : 536 pixels
    Display aspect ratio : 2.40:1
    Frame rate mode : Constant
    Frame rate : 23.976 (24000/1001) FPS
    Color space : YUV
    Chroma subsampling : 4:2:0
    Bit depth : 8 bits
    Scan type : Progressive
    Bits/(Pixel*Frame) : 0.243
    Stream size : 2.76 GiB (78%)
    Title : ELEKTRI4KA.UNIONGANG
    Writing library : x264 core 157 r2935 545de2f
    Encoding settings : cabac=1 / ref=12 / deblock=1:-3:-3 / analyse=0x3:0x113 / me=umh / subme=9 / psy=1 / psy_rd=1.00:0.00 / mixed_ref=1 / me_range=32 / chroma_me=1 / trellis=2 / 8x8dct=1 / cqm=0 / deadzone=21,11 / fast_pskip=0 / chroma_qp_offset=-2 / threads=17 / lookahead_threads=4 / sliced_threads=0 / nr=0 / decimate=0 / interlaced=0 / bluray_compat=0 / constrained_intra=0 / bframes=12 / b_pyramid=2 / b_adapt=2 / b_bias=0 / direct=1 / weightb=0 / open_gop=0 / weightp=2 / keyint=240 / keyint_min=24 / scenecut=40 / intra_refresh=0 / rc_lookahead=70 / rc=2pass / mbtree=0 / bitrate=4000 / ratetol=1.0 / qcomp=0.65 / qpmin=0 / qpmax=69 / qpstep=4 / cplxblur=20.0 / qblur=0.5 / vbv_maxrate=50000 / vbv_bufsize=62000 / nal_hrd=none / filler=0 / ip_ratio=1.40 / pb_ratio=1.30 / aq=1:1.10
    Language : French
    Default : Yes
    Forced : No
    Color range : Limited
    Color primaries : BT.709
    Transfer characteristics : BT.709
    Matrix coefficients : BT.709
    Audio #1
    ID : 2
    Format : AC-3
    Format/Info : Audio Coding 3
    Commercial name : Dolby Digital
    Codec ID : A_AC3
    Duration : 1 h 41 min
    Bit rate mode : Constant
    Bit rate : 384 kb/s
    Channel(s) : 6 channels
    Channel layout : L R C LFE Ls Rs
    Sampling rate : 48.0 kHz
    Frame rate : 31.250 FPS (1536 SPF)
    Bit depth : 16 bits
    Compression mode : Lossy
    Stream size : 279 MiB (8%)
    Title : iTunes (ELEKTRI4KA.UNIONGANG)
    Language : Russian
    Service kind : Complete Main
    Default : Yes
    Forced : No
    Audio #2
    ID : 3
    Format : AC-3
    Format/Info : Audio Coding 3
    Commercial name : Dolby Digital
    Codec ID : A_AC3
    Duration : 1 h 41 min
    Bit rate mode : Constant
    Bit rate : 640 kb/s
    Channel(s) : 6 channels
    Channel layout : L R C LFE Ls Rs
    Sampling rate : 48.0 kHz
    Frame rate : 31.250 FPS (1536 SPF)
    Bit depth : 16 bits
    Compression mode : Lossy
    Stream size : 465 MiB (13%)
    Title : Original French
    Language : French
    Service kind : Complete Main
    Default : No
    Forced : No


    _________________

      -746

    • Сообщений: 197

    • Откуда: Космический Станция

    Создавать темы 24-Ноя-2019 00:22 (спустя 1 день 4 часа)

    Топик был перенесен из форума Новинки в форум HD
    NuRKHoNoFF
    Показать сообщения:    
    Главная  Кинофильмы  Зарубежные кинофильмы  HD

    Текущее время: 10-Дек 04:44

    Часовой пояс: UTC + 5



    Вы не можете начинать темы
    Вы не можете отвечать на сообщения
    Вы не можете редактировать свои сообщения
    Вы не можете удалять свои сообщения
    Вы не можете голосовать в опросах
    Вы не можете прикреплять файлы к сообщениям
    Вы не можете скачивать файлы