Оно 2 / It Chapter Two (Андрес Мускетти / Andy Muschietti) [2019, Ужасы, WEB-DL 720p HEVC] iTunes :: UZTOR.PW Лучший трекер в зоне TAS-IX!
Регистрация ·
Имя: Пароль:  
· Забыли пароль?
Уважаемые гости сайта! Добро Пожаловать на наш торрент трекер,где Вы можете бесплатно скачать любой Софт,Фильмы,Музыку и многое другое! А так же постоянно ведется набор модераторов и релизеров. Зарегистрируйтесь сейчас, чтобы получить доступ ко всем функциям. После регистрации или входа на сайт вы сможете создавать темы, отвечать на сообщения и скачивать файлы.

Навигация по Торрент раздачам и Форум

До нового обновления Торрент-Трекер осталось

 Оно 2 / It Chapter Two (Андрес Мускетти / Andy Muschietti) [2019, Ужасы, WEB-DL 720p HEVC] iTunes

Главная  Кинофильмы  Кинофильмы (HEVC)  Новинки
Статистика раздачи
Скачал: [ 1 ]
 
     
 
 
Автор Сообщение
  • NuRKHoNoFF ®
  • Не в сети
  • 5064
  • Пол: Мужской

  • Стаж: 11 месяцев 22 дня

  • Сообщений: 918

  • Откуда: Каттакурган

  • Провайдер: TPS TPS

  • Карма: 583


  • Наличие запрета:

  • Награды: 17 (Подробнее)
    Активный релизер 1 (Количество: 1) Активный релизер 2 (Количество: 1) Активный релизер 3 (Количество: 1) Активный релизер 4 (Количество: 1) Активный релизер 5 (Количество: 1)
  • Создавать темы 20-Ноя-2019 01:57

    Оно 2 / It Chapter Two -Год выпуска: 2019
    Страна: Канада, США
    Жанр: Ужасы
    Продолжительность: 02:49:22
    Перевод: Дублированный [iTunes]-Субтитры: Русские форсированные (отдельно) англиские-Режиссер: Андрес Мускетти / Andy Muschietti-В ролях: Джессика Честейн, Джеймс МакЭвой, Билл Хэйдер, Айзая Мустафа, Джей Райан, Джеймс Рэнсон, Энди Бин, Билл Скарсгард, Джейден Мартелл, Уайатт Олефф, Джек Дилан Грейзер, Финн Вулфард, София Лиллис, Чоузен Джейкобс, Джереми Рэй Тейлор, Тич Грант, Николас Хэмилтон, Хавьер Ботет, Тейлор Фрэй, Молли Эткинсон, Люк Росслер, Джесс Вейкслер-Описание: Проходит 27 лет после первой встречи ребят с демоническим Пеннивайзом. Они уже выросли, и у каждого своя жизнь. Но неожиданно их спокойное существование нарушает странный телефонный звонок, который заставляет их вновь собраться вместе.- -Качество: WEB-DL 720p
    Формат: MKV
    Видео: HEVC, 1280x536, 737 Kbit/s, 23.976 fps
    Аудио №1: 48 kHz, MP3, 2 ch, 128 Kbps | iTunes | RUS
    Аудио №2: 48 kHz, AAC, 2 ch, 72 Kbps | Оригинал | ENG-

    MediaInfo

    General
    Unique ID : 127147234023345813832040921823571139584 (0x5FA7AAA20C4E5A0DB23A60F5DDA4DC00)
    Complete name : It.Chapter.Two.2019.720p.WEB-DL.2CH.x265.HEVC.mkv
    Format : Matroska
    Format version : Version 4
    File size : 1.11 GiB
    Duration : 2 h 49 min
    Overall bit rate : 940 kb/s
    Movie name : It.Chapter.Two.2019.720p.WEB-DL.2CH.x265.HEVC
    Encoded date : UTC 2019-11-19 20:36:18
    Writing application : mkvmerge v34.0.0 ('Sight and Seen') 64-bit
    Writing library : libebml v1.3.7 + libmatroska v1.5.0
    Video
    ID : 1
    Format : HEVC
    Format/Info : High Efficiency Video Coding
    Format profile : Main@L3.1@Main
    Codec ID : V_MPEGH/ISO/HEVC
    Duration : 2 h 49 min
    Bit rate : 737 kb/s
    Width : 1 280 pixels
    Height : 536 pixels
    Display aspect ratio : 2.40:1
    Frame rate mode : Constant
    Frame rate : 23.976 (24000/1001) FPS
    Color space : YUV
    Chroma subsampling : 4:2:0
    Bit depth : 8 bits
    Bits/(Pixel*Frame) : 0.045
    Stream size : 893 MiB (78%)
    Default : Yes
    Forced : No
    Color range : Limited
    Color primaries : BT.709
    Transfer characteristics : BT.709
    Matrix coefficients : BT.709
    Audio #1
    ID : 2
    Format : MPEG Audio
    Format version : Version 1
    Format profile : Layer 3
    Codec ID : A_MPEG/L3
    Codec ID/Hint : MP3
    Duration : 2 h 49 min
    Bit rate mode : Constant
    Bit rate : 128 kb/s
    Channel(s) : 2 channels
    Sampling rate : 48.0 kHz
    Frame rate : 41.667 FPS (1152 SPF)
    Compression mode : Lossy
    Stream size : 156 MiB (14%)
    Title : iTunes
    Writing library : LAME3.99r
    Encoding settings : -m s -V 4 -q 2 -lowpass 17 -b 128
    Language : Russian
    Default : Yes
    Forced : No
    Audio #2
    ID : 3
    Format : AAC LC SBR
    Format/Info : Advanced Audio Codec Low Complexity with Spectral Band Replication
    Commercial name : HE-AAC
    Format settings : Explicit
    Codec ID : A_AAC-2
    Duration : 2 h 49 min
    Bit rate : 72.0 kb/s
    Channel(s) : 2 channels
    Channel layout : L R
    Sampling rate : 48.0 kHz
    Frame rate : 23.438 FPS (2048 SPF)
    Compression mode : Lossy
    Delay relative to video : 23 ms
    Stream size : 88.2 MiB (8%)
    Language : English
    Default : No
    Forced : No
    Text #1
    ID : 4
    Format : UTF-8
    Codec ID : S_TEXT/UTF8
    Codec ID/Info : UTF-8 Plain Text
    Duration : 2 h 48 min
    Bit rate : 1 b/s
    Count of elements : 68
    Stream size : 2.40 KiB (0%)
    Language : Russian
    Default : Yes
    Forced : No
    Text #2
    ID : 5
    Format : UTF-8
    Codec ID : S_TEXT/UTF8
    Codec ID/Info : UTF-8 Plain Text
    Duration : 2 h 44 min
    Bit rate : 50 b/s
    Count of elements : 2405
    Stream size : 60.5 KiB (0%)
    Language : English
    Default : No
    Forced : No


    _________________
    • NuRKHoNoFF ®
    • Не в сети
    • 5064
    • Пол: Мужской

    • Стаж: 11 месяцев 22 дня

    • Сообщений: 918

    • Откуда: Каттакурган

    • Провайдер: TPS TPS

    • Карма: 583


    • Наличие запрета:

    • Награды: 17 (Подробнее)
      Активный релизер 1 (Количество: 1) Активный релизер 2 (Количество: 1) Активный релизер 3 (Количество: 1) Активный релизер 4 (Количество: 1) Активный релизер 5 (Количество: 1)
  • Создавать темы 20-Ноя-2019 02:04 (спустя 7 минут)

    Релиз сделан с помощью современного кодека x265(HEVC), который обеспечивает высокую степень сжатия и отличное качество! Всем Приятного просмотра!

    _________________
    Показать сообщения:    
    Главная  Кинофильмы  Кинофильмы (HEVC)  Новинки

    Текущее время: 09-Дек 13:16

    Часовой пояс: UTC + 5



    Вы не можете начинать темы
    Вы не можете отвечать на сообщения
    Вы не можете редактировать свои сообщения
    Вы не можете удалять свои сообщения
    Вы не можете голосовать в опросах
    Вы не можете прикреплять файлы к сообщениям
    Вы не можете скачивать файлы